conanlcg
超级版主

[2011] [欧美] [剧情] [WEB-1080P] 青春校园 Teen.Spirit.2011.1080p.AMZN.WEBRip.DDP5.1.x264-ABM 5.33GB

-->

帖子完整标题:青春校园 Teen.Spirit.2011.1080p.AMZN.WEBRip.DDP5.1.x264-ABM 5.33GB




◎译  名 青春校园
◎片  名 Teen Spirit
◎年  代 2011
◎产  地 美国
◎类  别 剧情
◎语  言 英语
◎上映日期 2011-08-07
◎IMDb评分 5.6/10 from 6576 users
◎IMDb链接 http://www.imdb.com/title/tt1845866
◎豆瓣评分 5.4/10 from 673 users
◎豆瓣链接 https://movie.douban.com/subject/6753532/
◎片  长 82分钟
◎导  演 吉尔·约格尔 Gil Junger
◎编  剧 David Kendall / Bob Young
◎主  演 琳德塞·肖 Lindsey Shaw
      Chris Zylka
      卡茜·瑟波 Cassie Scerbo


◎标  签 青春 | 校园 | 美国 | 喜剧 | 美国电影 | 2011 | 美式校园 | 电影

◎简  介

  安博尔(卡茜·瑟波 Cassie Scerbo 饰)热情性感,是校园里当之无愧的人气女王,然而,正当她夺得了校园舞会女王的无上称号,正在接收大家的顶礼膜拜之时,却意外触电死亡。死后的安博尔灵魂出窍,却被告知无法升入天堂,不仅如此,如果她不能够帮助学校里最不受欢迎的女生丽萨(琳德塞·肖 Lindsey Shaw 饰)夺得舞会女王的头衔,安博尔还将坠入地狱!
无奈之下,安博尔的灵魂来到了丽萨的身边,开始了对其的改造。丽萨个性内向而又羞涩,从来都是被忽略和被嘲笑的对象,不过,在安博尔的帮助下,丽萨的性格开始渐渐改变,变得高傲而又肤浅,在她的身上,安博尔仿佛看到了曾经的自己。

Video
ID : 1
Format : AVC
Format/Info : Advanced Video Codec
Format profile : [email protected]
Format settings : CABAC / 4 Ref Frames
Format settings, CABAC : Yes
Format settings, ReFrames : 4 frames
Codec ID : V_MPEG4/ISO/AVC
Duration : 1 h 21 min
Bit rate mode : Variable
Bit rate : 8 524 kb/s
Maximum bit rate : 15.0 Mb/s
Width : 1 920 pixels
Height : 1 080 pixels
Display aspect ratio : 16:9
Frame rate mode : Constant
Frame rate : 23.976 (24000/1001) FPS
Color space : YUV
Chroma subsampling : 4:2:0
Bit depth : 8 bits
Scan type : Progressive
Bits/(Pixel*Frame) : 0.171
Stream size : 4.86 GiB (91%)
Language : English
Default : Yes
Forced : No
Color range : Limited
Color primaries : BT.709
Transfer characteristics : BT.709
Matrix coefficients : BT.709

Audio
ID : 2
Format : E-AC-3
Format/Info : Enhanced AC-3
Commercial name : Dolby Digital Plus
Codec ID : A_EAC3
Duration : 1 h 21 min
Bit rate mode : Constant
Bit rate : 640 kb/s
Channel(s) : 6 channels
Channel layout : L R C LFE Ls Rs
Sampling rate : 48.0 kHz
Frame rate : 31.250 FPS (1536 SPF)
Compression mode : Lossy
Stream size : 374 MiB (7%)
Language : English
Service kind : Complete Main
Default : Yes
Forced : No

Text
ID : 3
Format : UTF-8
Codec ID : S_TEXT/UTF8
Codec ID/Info : UTF-8 Plain Text
Language : English
Default : No
Forced : No





1 个附件 售价 大小 下载 时间

Teen.Spirit.2011.1080p.AMZN.WEBRip.DDP5.1.x264-ABM.torrent 0 金币 27.20K 196 次 5月前

#1楼
发帖时间:2019-07-01 20:24:25   |   回复数:2
911degrees
隐世仙人♂
非常感谢,谢谢分享
5月前 #2楼
liyouchai
隐世仙人♂
谢谢楼主分享资源
5月前 #3楼
游客组