conanlcg
超级版主

[2016] [泰国] [剧情] [WEB-1080P] 旅馆情雾 Motel.Mist.2016.THAI.1080p.AMZN.WEBRip.DDP2.0.x264-monkee 2.85GB

-->

帖子完整标题:旅馆情雾 Motel.Mist.2016.THAI.1080p.AMZN.WEBRip.DDP2.0.x264-monkee 2.85GB




◎译  名 旅馆情雾 / ?????????????
◎片  名 Motel Mist
◎年  代 2016
◎产  地 泰国
◎类  别 剧情
◎语  言 泰语
◎IMDb评分 5.3/10 from 91 users
◎IMDb链接 http://www.imdb.com/title/tt5457582
◎豆瓣评分 0/10 from 0 users
◎豆瓣链接 https://movie.douban.com/subject/26706921/
◎导  演 Prabda Yoon

◎标  签 泰国 | 2015 | 剧情 | PA-RotterdamA入围主竞赛

◎简  介

  Sopol, a typical Thai father-like figure with kinky and dangerous sexual fetishes, brings his new young prey, a school girl named Laila, to room number 7, his custom-made erotic chamber.
Tun, a former child actor who has been reported missing by his mother and causing the media to speculate wildly over his alleged delusional belief that aliens are coming to take him away, shows up at the motel, determined to check into room number 5 and paint it all black.
Tot, a motel staffer, dreams of a cooler job, and perhaps the handsome reward money offered by Tun’s mother for information on her son’s whereabout could be useful.
Sexy Vicky arrives just in time to help her friend Laila from falling under Sopol’s violent domination.
These four lives eventually connect in a way that none of them could have anticipated. All are “taken away.” Because there’s more at Motel Mistress than meets the eye. Mysterious powers seem to have profound influence over every action and detail in the place. Maybe aliens are there to take Tun away for real. And maybe that’s not all they’re there to do.

Video
ID : 1
Format : AVC
Format/Info : Advanced Video Codec
Format profile : [email protected]
Format settings : CABAC / 4 Ref Frames
Format settings, CABAC : Yes
Format settings, ReFrames : 4 frames
Codec ID : V_MPEG4/ISO/AVC
Duration : 1 h 57 min
Bit rate : 3 258 kb/s
Width : 1 920 pixels
Height : 816 pixels
Display aspect ratio : 2.35:1
Frame rate mode : Constant
Frame rate : 24.000 FPS
Color space : YUV
Chroma subsampling : 4:2:0
Bit depth : 8 bits
Scan type : Progressive
Bits/(Pixel*Frame) : 0.087
Stream size : 2.67 GiB (94%)
Default : Yes
Forced : No
Color range : Limited
Color primaries : BT.709
Transfer characteristics : BT.709
Matrix coefficients : BT.709

Audio
ID : 2
Format : E-AC-3
Format/Info : Enhanced AC-3
Commercial name : Dolby Digital Plus
Codec ID : A_EAC3
Duration : 1 h 57 min
Bit rate mode : Constant
Bit rate : 224 kb/s
Channel(s) : 2 channels
Channel layout : L R
Sampling rate : 48.0 kHz
Frame rate : 31.250 FPS (1536 SPF)
Compression mode : Lossy
Stream size : 188 MiB (6%)
Service kind : Complete Main
Default : Yes
Forced : No

Text
ID : 3
Format : UTF-8
Codec ID : S_TEXT/UTF8
Codec ID/Info : UTF-8 Plain Text
Duration : 1 h 48 min
Bit rate : 21 b/s
Count of elements : 591
Stream size : 17.1 KiB (0%)
Language : English
Default : No
Forced : No





1 个附件 售价 大小 下载 时间

Motel.Mist.2016.THAI.1080p.AMZN.WEBRip.DDP2.0.x264-monkee.torrent 0 金币 29.09K 448 次 1月前

#1楼
发帖时间:2019-07-01 20:26:23   |   回复数:2
911degrees
隐世仙人♂
非常感谢,谢谢分享
1月前 #2楼
liyouchai
隐世仙人♂
谢谢楼主分享资源
1月前 #3楼
游客组