conanlcg
超级版主

[2011] [欧美] [剧情] [BD-1080P] 过境 Transit.2012.1080p.BluRay.x264-THUGLiNE 6.55GB

-->

帖子完整标题:过境 Transit.2012.1080p.BluRay.x264-THUGLiNE 6.55GB




◎译  名 过境
◎片  名 Transit
◎年  代 2011
◎产  地 美国
◎类  别 剧情 / 惊悚 / 犯罪
◎语  言 英语
◎上映日期 2012-01-05
◎IMDb评分 5.8/10 from 10285 users
◎IMDb链接 http://www.imdb.com/title/tt1059836
◎豆瓣评分 6.3/10 from 659 users
◎豆瓣链接 https://movie.douban.com/subject/4160595/
◎片  长 90分钟
◎导  演 José Antonio Negret
◎编  剧 José Antonio Negret
◎主  演 詹姆斯·卡维泽 James Caviezel
      斯特林·克耐特 Sterling Knight
      迪奥拉·拜尔德 Diora Baird


◎标  签 美国 | 犯罪 | 动作 | 美国电影 | 公路片 | 2012 | JamesCaviezel | 惊悚

◎简  介

  影片讲述了一个家庭在公路旅行中被一个犯罪团伙跟踪,原来黑帮偷偷地把偷来的钱放在了这家人的车上过境,现在打算把钱拿回来。在追逐的过程中,劫匪内部出现了内部分化,而丈夫与妻子的关系也因之前积累的矛盾而恶化。

Video
ID : 1
Format : AVC
Format/Info : Advanced Video Codec
Format profile : [email protected]
Format settings, CABAC : Yes
Format settings, ReFrames : 5 frames
Codec ID : V_MPEG4/ISO/AVC
Duration : 1h 28mn
Bit rate : 9 113 Kbps
Width : 1 920 pixels
Height : 816 pixels
Display aspect ratio : 2.35:1
Frame rate mode : Constant
Frame rate : 23.976 fps
Color space : YUV
Chroma subsampling : 4:2:0
Bit depth : 8 bits
Scan type : Progressive
Bits/(Pixel*Frame) : 0.243
Stream size : 5.49 GiB (84%)
Writing library : x264 core 119 r2106 07efeb4
Encoding settings : cabac=1 / ref=5 / deblock=1:0:0 / analyse=0x3:0x113 / me=umh / subme=7 / psy=1 / psy_rd=1.00:0.15 / mixed_ref=1 / me_range=16 / chroma_me=1 / trellis=1 / 8x8dct=1 / cqm=0 / deadzone=21,11 / fast_pskip=0 / chroma_qp_offset=-3 / threads=12 / sliced_threads=0 / nr=0 / decimate=1 / interlaced=0 / bluray_compat=0 / constrained_intra=0 / bframes=3 / b_pyramid=2 / b_adapt=1 / b_bias=0 / direct=1 / weightb=1 / open_gop=0 / weightp=2 / keyint=250 / keyint_min=23 / scenecut=40 / intra_refresh=0 / rc_lookahead=40 / rc=2pass / mbtree=1 / bitrate=9113 / ratetol=1.0 / qcomp=0.60 / qpmin=0 / qpmax=69 / qpstep=4 / cplxblur=20.0 / qblur=0.5 / ip_ratio=1.40 / aq=1:1.00
Language : English
Default : Yes
Forced : No

Audio
ID : 2
Format : DTS
Format/Info : Digital Theater Systems
Mode : 16
Format settings, Endianness : Big
Codec ID : A_DTS
Duration : 1h 28mn
Bit rate mode : Constant
Bit rate : 1 509 Kbps
Channel(s) : 6 channels
Channel positions : Front: L C R, Side: L R, LFE
Sampling rate : 48.0 KHz
Bit depth : 24 bits
Compression mode : Lossy
Stream size : 953 MiB (14%)
Language : English
Default : Yes
Forced : No





1 个附件 售价 大小 下载 时间

Transit.2012.1080p.BluRay.x264-THUGLiNE.torrent 0 金币 66.06K 385 次 5月前

#1楼
发帖时间:2019-07-01 21:44:48   |   回复数:3
blue23
隐世仙人♂
感谢楼主分享
5月前 #2楼
liyouchai
隐世仙人♂
谢谢楼主分享资源
5月前 #3楼
911degrees
隐世仙人♂
非常感谢,谢谢分享
5月前 #4楼
游客组