conanlcg
超级版主

[2010] [欧美] [其他] [BD-1080P] 米克的近路 Meeks.Cutoff.2010.LIMITED.1080p.BluRay.X264-AMIABLE 7.65GB

-->

帖子完整标题:米克的近路 Meeks.Cutoff.2010.LIMITED.1080p.BluRay.X264-AMIABLE 7.65GB




◎译  名 米克的近路
◎片  名 Meek's Cutoff
◎年  代 2010
◎产  地 美国
◎类  别 西部
◎语  言 英语
◎上映日期 2010-09-05(威尼斯电影节) / 2011-04-15(英国)
◎IMDb评分 6.6/10 from 10473 users
◎IMDb链接 http://www.imdb.com/title/tt1518812
◎豆瓣评分 6.6/10 from 914 users
◎豆瓣链接 https://movie.douban.com/subject/4067195/
◎片  长 104分钟
◎导  演 凯莉·雷查德 Kelly Reichardt
◎编  剧 乔纳森·雷蒙德 Jonathan Raymond
◎主  演 米歇尔·威廉姆斯 Michelle Williams
      保罗·达诺 Paul Dano
      布鲁斯·格林伍德 Bruce Greenwood
      威尔·帕顿 Will Patton
      佐伊·卡赞 Zoe Kazan
      雪莉·亨德森 Shirley Henderson
      Tommy Nelson


◎标  签 美国 | 西部 | MichelleWilliams | 美国电影 | KellyReichardt | 2010 | 2011 | PaulDano

◎简  介

  故事发生在1845年,西部大迁徙的步伐刚刚迈出,想要穿越那片荒芜而又充满了凶险的蛮荒之地,除了需要足够的勇气和运气之外,智慧必不可少。三个家庭决定离开故土,寻找新的生活,为了自保,他们找到了一位名叫米克(布鲁斯·格林伍德 Bruce Greenwood 饰)的向导,希望他能够护送他们安全抵达目的地。
然而,当众人在米克所谓的近路上渐行渐远之时,越来越荒凉的景象和越来越陌生的环境让他们知道,他们迷路了。资源在渐渐的消耗,饥渴和恐慌逐渐消磨着人们的意志,就在大家觉得走投无路之际,一名当地土著的到来带来了新的希望,然而,他们并不能肯定,来人是朋友,还是敌人。

◎获奖情况

  第67届威尼斯电影节(2010)
  金狮奖(提名) 凯莉·雷查德
  天主教文化奖 凯莉·雷查德



Video
ID : 1
Format : AVC
Format/Info : Advanced Video Codec
Format profile : [email protected]
Format settings, CABAC : Yes
Format settings, ReFrames : 5 frames
Codec ID : V_MPEG4/ISO/AVC
Duration : 1h 42mn
Bit rate : 9 158 Kbps
Width : 1 440 pixels
Height : 1 080 pixels
Display aspect ratio : 4:3
Frame rate mode : Constant
Frame rate : 23.976 (24000/1001) fps
Color space : YUV
Chroma subsampling : 4:2:0
Bit depth : 8 bits
Scan type : Progressive
Bits/(Pixel*Frame) : 0.246
Stream size : 6.42 GiB (84%)
Writing library : x264 core 116 r2074 2641b9e
Encoding settings : cabac=1 / ref=5 / deblock=1:0:0 / analyse=0x3:0x113 / me=umh / subme=8 / psy=1 / psy_rd=1.00:0.00 / mixed_ref=1 / me_range=16 / chroma_me=1 / trellis=1 / 8x8dct=1 / cqm=0 / deadzone=21,11 / fast_pskip=1 / chroma_qp_offset=-2 / threads=12 / sliced_threads=0 / nr=0 / decimate=1 / interlaced=0 / bluray_compat=0 / constrained_intra=0 / bframes=3 / b_pyramid=2 / b_adapt=2 / b_bias=0 / direct=3 / weightb=1 / open_gop=0 / weightp=2 / keyint=240 / keyint_min=24 / scenecut=40 / intra_refresh=0 / rc_lookahead=50 / rc=2pass / mbtree=1 / bitrate=9158 / ratetol=1.0 / qcomp=0.60 / qpmin=0 / qpmax=69 / qpstep=4 / cplxblur=20.0 / qblur=0.5 / ip_ratio=1.40 / aq=1:1.00
Language : English
Default : Yes
Forced : No

Audio
ID : 2
Format : DTS
Format/Info : Digital Theater Systems
Mode : 16
Format settings, Endianness : Big
Codec ID : A_DTS
Duration : 1h 42mn
Bit rate mode : Constant
Bit rate : 1 509 Kbps
Channel(s) : 6 channels
Channel positions : Front: L C R, Side: L R, LFE
Sampling rate : 48.0 KHz
Frame rate : 93.750 fps (512 spf)
Bit depth : 24 bits
Compression mode : Lossy
Stream size : 1.08 GiB (14%)
Language : English
Default : Yes
Forced : No

Text
ID : 3
Format : UTF-8
Codec ID : S_TEXT/UTF8
Codec ID/Info : UTF-8 Plain Text
Language : English
Default : No
Forced : No

Menu
00:00:00.000 : en:00:00:00.000
00:06:10.662 : en:00:06:10.662
00:11:18.011 : en:00:11:18.011
00:17:19.330 : en:00:17:19.330
00:22:08.369 : en:00:22:08.369
00:26:54.655 : en:00:26:54.655
00:31:31.348 : en:00:31:31.348
00:38:33.561 : en:00:38:33.561
00:42:22.707 : en:00:42:22.707
00:47:38.397 : en:00:47:38.397
00:53:38.799 : en:00:53:38.799
00:59:41.203 : en:00:59:41.203
01:06:40.663 : en:01:06:40.663
01:12:30.012 : en:01:12:30.012
01:20:37.249 : en:01:20:37.249
01:24:26.019 : en:01:24:26.019
01:30:20.999 : en:01:30:20.999
01:37:28.885 : en:01:37:28.885





1 个附件 售价 大小 下载 时间

Meeks.Cutoff.2010.LIMITED.1080p.BluRay.X264-AMIABLE.torrent 0 金币 77.15K 525 次 1月前

#1楼
发帖时间:2019-07-01 22:07:08   |   回复数:2
liyouchai
隐世仙人♂
谢谢楼主分享资源
1月前 #2楼
911degrees
隐世仙人♂
非常感谢,谢谢分享
1月前 #3楼
游客组