conanlcg
超级版主

[2016] [欧美] [惊悚] [BD-1080P] 别挂电话/索命连线 Dont.Hang.Up.2016.1080p.BluRay.x264-VETO 7.64GB

-->

帖子完整标题:别挂电话/索命连线 Dont.Hang.Up.2016.1080p.BluRay.x264-VETO 7.64GB




◎译  名 别挂电话 / 索命连线(台)
◎片  名 Don't Hang Up
◎年  代 2016
◎产  地 英国
◎类  别 惊悚 / 恐怖
◎语  言 英语
◎上映日期 2016-10-22(英国)
◎IMDb评分 5.6/10 from 10852 users
◎IMDb链接 http://www.imdb.com/title/tt3610746
◎豆瓣评分 5.7/10 from 1204 users
◎豆瓣链接 https://movie.douban.com/subject/26385109/
◎片  长 83分钟
◎导  演 达米恩·马塞 Damien Macé / 亚历克西斯·瓦斯布瑞德 Alexis Wajsbrot
◎编  剧 乔·约翰逊 Joe Johnson
◎主  演 西耶娜·盖尔利 Sienna Guillory
      加勒特·克莱顿 Garrett Clayton
      格雷格·萨克因 Gregg Sulkin
      贝拉·戴恩 Bella Dayne
      帕克·索耶 Parker Sawyers
      杰克·布雷特·安德森 Jack Brett Anderson
      菲利普·德斯穆尔斯 Philip Desmeules
      罗伯特·古德曼 Robert Goodman
      米迦勒·博迪 Michael Bodie


◎标  签 惊悚 | 恐怖 | 犯罪 | 英国 | 复仇 | 悬疑 | 血腥 | 网络

◎简  介

  两位年轻男子想要找点事做,来打发喝醉酒的无聊夜晚。玩性大开的他们于是决定要恶整陌生人,首先随意拨打电话到未知的号码,谎称自己是警方并且已经锁定在对方家中的未知闯入者。无辜的人们不但半夜被他们吓破胆,还被录下恶搞影片上传社群媒体。玩疯了的两人沉浸在社群的热烈迴响当中,浑然不知自己诓骗倒楣受害者的恐怖剧情,将真实上演在自己身上,一名凶残的陌生人打了电话进来,铃声响起,你接,还是不接…?

Video
ID : 1
Format : AVC
Format/Info : Advanced Video Codec
Format profile : [email protected]
Format settings, CABAC : Yes
Format settings, ReFrames : 5 frames
Codec ID : V_MPEG4/ISO/AVC
Duration : 1h 23mn
Bit rate : 11.6 Mbps
Width : 1 920 pixels
Height : 816 pixels
Display aspect ratio : 2.35:1
Frame rate mode : Constant
Frame rate : 23.976 (24000/1001) fps
Color space : YUV
Chroma subsampling : 4:2:0
Bit depth : 8 bits
Scan type : Progressive
Bits/(Pixel*Frame) : 0.310
Stream size : 6.76 GiB (88%)
Writing library : x264 core 148 r2762 90a61ec
Encoding settings : cabac=1 / ref=5 / deblock=1:1:1 / analyse=0x3:0x133 / me=umh / subme=8 / psy=1 / psy_rd=1.00:0.00 / mixed_ref=1 / me_range=16 / chroma_me=1 / trellis=1 / 8x8dct=1 / cqm=0 / deadzone=21,11 / fast_pskip=0 / chroma_qp_offset=-2 / threads=16 / lookahead_threads=2 / sliced_threads=0 / nr=0 / decimate=1 / interlaced=0 / bluray_compat=0 / constrained_intra=0 / bframes=3 / b_pyramid=2 / b_adapt=2 / b_bias=0 / direct=3 / weightb=1 / open_gop=0 / weightp=2 / keyint=250 / keyint_min=23 / scenecut=40 / intra_refresh=0 / rc_lookahead=50 / rc=2pass / mbtree=1 / bitrate=11650 / ratetol=1.0 / qcomp=0.60 / qpmin=0 / qpmax=69 / qpstep=4 / cplxblur=20.0 / qblur=0.5 / ip_ratio=1.40 / aq=1:1.00
Default : Yes
Forced : No

Audio
ID : 2
Format : DTS
Format/Info : Digital Theater Systems
Mode : 16
Format settings, Endianness : Big
Codec ID : A_DTS
Duration : 1h 23mn
Bit rate mode : Constant
Bit rate : 1 509 Kbps
Channel(s) : 6 channels
Channel positions : Front: L C R, Side: L R, LFE
Sampling rate : 48.0 KHz
Frame rate : 93.750 fps (512 spf)
Bit depth : 24 bits
Compression mode : Lossy
Stream size : 902 MiB (12%)
Language : English
Default : Yes
Forced : No

Menu
00:00:00.000 : en:00:00:00.000
00:05:56.147 : en:00:05:56.147
00:14:15.146 : en:00:14:15.146
00:21:10.978 : en:00:21:10.978
00:25:43.083 : en:00:25:43.083
00:32:41.168 : en:00:32:41.168
00:40:22.378 : en:00:40:22.378
00:47:59.877 : en:00:47:59.877
00:54:12.082 : en:00:54:12.082
01:00:52.899 : en:01:00:52.899
01:09:36.798 : en:01:09:36.798
01:15:44.457 : en:01:15:44.457





1 个附件 售价 大小 下载 时间

Dont.Hang.Up.2016.1080p.BluRay.x264-VETO.torrent 0 金币 77.04K 469 次 1月前

#1楼
发帖时间:2019-07-01 22:22:32   |   回复数:2
liyouchai
隐世仙人♂
谢谢楼主分享资源
1月前 #2楼
911degrees
隐世仙人♂
非常感谢,谢谢分享
1月前 #3楼
游客组