conanlcg
超级版主

[2018] [欧美] [剧情] [BD-Remux] 教授 The.Professor.2018.1080p.BluRay.REMUX.AVC.DTS-HD.MA.5.1-FGT 18.29GB

-->

帖子完整标题:教授 The.Professor.2018.1080p.BluRay.REMUX.AVC.DTS-HD.MA.5.1-FGT 18.29GB




◎译  名 教授 / Richard Says Goodbye / 理查德的道别
◎片  名 The Professor
◎年  代 2018
◎产  地 美国
◎类  别 剧情 / 喜剧
◎语  言 英语
◎上映日期 2018-10-05(苏黎世电影节) / 2019-05-17(美国)
◎IMDb评分 8.0/10 from 444 users
◎IMDb链接 http://www.imdb.com/title/tt6865690
◎豆瓣评分 0/10 from 0 users
◎豆瓣链接 https://movie.douban.com/subject/27040157/
◎片  长 90分钟
◎导  演 韦恩·罗伯茨 Wayne Roberts
◎编  剧 韦恩·罗伯茨 Wayne Roberts
◎主  演 约翰尼·德普 Johnny Depp
      佐伊·达奇 Zoey Deutch
      罗丝玛丽·德薇特 Rosemarie DeWitt
      朗·里维斯顿 Ron Livingston
      贾斯汀·沃林顿 Justine Warrington
      丹尼·赫斯顿 Danny Huston
      希芳·法隆 Siobhan Fallon
      帕洛玛·克维亚特科夫斯基 Paloma Kwiatkowski
      奥黛莎·杨 Odessa Young
      凯特琳·伯纳德 Kaitlyn Bernard
      法拉赫·阿维瓦 Farrah Aviva
      琳达·伊蒙 Linda Emond
      基斯·麦克科基尼 Keith MacKechnie
      德文·特雷尔 Devon Terrell
      丹尼斯·科贝特 Denis Corbett
      约兰达·科贝特 Yolanda Corbett
      Matreya Scarrwener
      Katherine Evans


◎标  签 JohnnyDepp | 约翰尼德普 | 美国 | 喜剧 | 德普 | 剧情 | Depp | 2019

◎简  介

  故事讲述一位厌世的大学教授被诊断癌症,得知只有6个月的生命后决定抛弃一切伪装,从而改变自己人生的故事。他要求自己尽可能的大胆而自由的生活,并且幽默而从容,不计后果,甚至有点接近疯狂……

Video
ID : 1
Format : AVC
Format/Info : Advanced Video Codec
Format profile : [email protected]
Format settings : CABAC / 4 Ref Frames
Format settings, CABAC : Yes
Format settings, ReFrames : 4 frames
Codec ID : V_MPEG4/ISO/AVC
Duration : 1 h 31 min
Bit rate mode : Variable
Bit rate : 25.2 Mb/s
Maximum bit rate : 37.0 Mb/s
Width : 1 920 pixels
Height : 1 080 pixels
Display aspect ratio : 16:9
Frame rate mode : Constant
Frame rate : 23.976 (24000/1001) FPS
Color space : YUV
Chroma subsampling : 4:2:0
Bit depth : 8 bits
Scan type : Progressive
Bits/(Pixel*Frame) : 0.507
Stream size : 16.1 GiB (88%)
Title : The.Professor.2018.1080p.BluRay.REMUX.AVC.DTS-HD.MA.5.1-FGT
Language : English
Default : No
Forced : No

Audio
ID : 2
Format : DTS XLL
Format/Info : Digital Theater Systems
Commercial name : DTS-HD Master Audio
Codec ID : A_DTS
Duration : 1 h 31 min
Bit rate mode : Variable
Bit rate : 3 344 kb/s
Channel(s) : 6 channels
Channel layout : C L R Ls Rs LFE
Sampling rate : 48.0 kHz
Frame rate : 93.750 FPS (512 SPF)
Bit depth : 24 bits
Compression mode : Lossless
Stream size : 2.14 GiB (12%)
Title : The.Professor.2018.1080p.BluRay.REMUX.AVC.DTS-HD.MA.5.1-FGT
Language : English
Default : Yes
Forced : No

Text #1
ID : 3
Format : UTF-8
Codec ID : S_TEXT/UTF8
Codec ID/Info : UTF-8 Plain Text
Duration : 1 h 30 min
Bit rate : 68 b/s
Count of elements : 1568
Stream size : 45.5 KiB (0%)
Title : English-SRT
Language : English
Default : Yes
Forced : No

Text #2
ID : 4
Format : PGS
Muxing mode : zlib
Codec ID : S_HDMV/PGS
Codec ID/Info : Picture based subtitle format used on BDs/HD-DVDs
Duration : 1 h 30 min
Bit rate : 42.1 kb/s
Count of elements : 3136
Stream size : 27.1 MiB (0%)
Title : English-PGS
Language : English
Default : No
Forced : No

Text #3
ID : 5
Format : PGS
Muxing mode : zlib
Codec ID : S_HDMV/PGS
Codec ID/Info : Picture based subtitle format used on BDs/HD-DVDs
Duration : 1 h 29 min
Bit rate : 31.2 kb/s
Count of elements : 2566
Stream size : 20.0 MiB (0%)
Title : Spanish-PGS
Language : Spanish
Default : No
Forced : No

Menu
00:00:00.000 : en:Chapter 01
00:05:27.535 : en:Chapter 02
00:09:19.100 : en:Chapter 03
00:14:21.110 : en:Chapter 04
00:23:02.130 : en:Chapter 05
00:29:52.791 : en:Chapter 06
00:34:16.471 : en:Chapter 07
00:40:27.883 : en:Chapter 08
00:45:19.925 : en:Chapter 09
00:51:29.211 : en:Chapter 10
00:54:27.931 : en:Chapter 11
00:57:48.256 : en:Chapter 12
01:02:55.897 : en:Chapter 13
01:09:05.349 : en:Chapter 14
01:16:59.239 : en:Chapter 15
01:23:55.655 : en:Chapter 16





1 个附件 售价 大小 下载 时间

The.Professor.2018.1080p.BluRay.REMUX.AVC.DTS-HD.MA.5.1-FGT.torrent 0 金币 92.02K 1162 次 1月前

#1楼
发帖时间:2019-07-08 13:42:43   |   回复数:3
blue23
隐世仙人♂
感谢楼主分享
1月前 #2楼
911degrees
隐世仙人♂
非常感谢,谢谢分享
1月前 #3楼
liyouchai
隐世仙人♂
谢谢楼主分享资源
1月前 #4楼
游客组