conanlcg
超级版主

[2011] [欧美] [剧情] [BD-1080P] 甜心辣舞 2 Honey.2.2011.1080p.BluRay.x264.DTS-FGT 11.68GB

-->

帖子完整标题:甜心辣舞 2 Honey.2.2011.1080p.BluRay.x264.DTS-FGT 11.68GB




◎译  名 甜心辣舞 2
◎片  名 Honey 2
◎年  代 2011
◎产  地 美国
◎类  别 剧情 / 喜剧 / 音乐
◎语  言 英语
◎上映日期 2011
◎IMDb评分 5.4/10 from 6438 users
◎IMDb链接 http://www.imdb.com/title/tt1657283
◎豆瓣评分 6.2/10 from 1632 users
◎豆瓣链接 https://movie.douban.com/subject/5151823/
◎片  长 110分钟
◎导  演 Bille Woodruff
◎编  剧 Alyson Fouse
◎主  演 卡特琳娜·格兰厄姆 Katerina Graham
      赛切儿·加布埃尔 Seychelle Gabriel


◎标  签 美国 | 舞蹈 | 街舞 | 青春 | 歌舞 | 美国电影 | 励志 | 2011

◎简  介

  十七岁的玛利亚(卡特琳娜·格兰厄姆 Kat Graham 饰)刚刚被少管所释放,回到了故乡,在那里,她决定开始新的生活。某日,玛丽在机缘巧合之下来到了哈尼丹尼尔斯教授的舞蹈工作室,热爱跳舞的她很快就在那里找到了属于自己的舞台。
布兰顿(兰迪·韦恩 Randy Wayne 饰)注意到了隐藏在玛利亚身上的激情和天赋,于是邀请她和他一起训练HD舞蹈队。与此同时,玛利亚的前男友路易斯(Christopher 'War' Martinez 饰)回到了玛利亚的身边,亦向她抛出了橄榄枝,然而,玛利亚不希望重蹈覆辙,她拒绝了路易斯。在布兰顿和玛利亚的带领下,HD舞蹈队参加了电视舞蹈大赛,而将要同他们同台竞技的,恰恰是路易斯和他手下的队伍。

Video
ID : 1
Format : AVC
Format/Info : Advanced Video Codec
Format profile : [email protected]
Format settings : CABAC / 4 Ref Frames
Format settings, CABAC : Yes
Format settings, ReFrames : 4 frames
Codec ID : V_MPEG4/ISO/AVC
Duration : 1 h 50 min
Bit rate : 13.6 Mb/s
Width : 1 920 pixels
Height : 1 080 pixels
Display aspect ratio : 16:9
Frame rate mode : Constant
Frame rate : 23.976 (24000/1001) FPS
Color space : YUV
Chroma subsampling : 4:2:0
Bit depth : 8 bits
Scan type : Progressive
Bits/(Pixel*Frame) : 0.274
Stream size : 10.3 GiB (88%)
Writing library : x264 core 120 r2164 da19765
Encoding settings : cabac=1 / ref=4 / deblock=1:-2:-2 / analyse=0x3:0x113 / me=umh / subme=10 / psy=1 / psy_rd=1.00:0.00 / mixed_ref=1 / me_range=48 / chroma_me=1 / trellis=2 / 8x8dct=1 / cqm=0 / deadzone=21,11 / fast_pskip=0 / chroma_qp_offset=-2 / threads=6 / sliced_threads=0 / nr=0 / decimate=0 / interlaced=0 / bluray_compat=0 / constrained_intra=0 / bframes=8 / b_pyramid=2 / b_adapt=1 / b_bias=0 / direct=2 / weightb=0 / open_gop=0 / weightp=2 / keyint=240 / keyint_min=23 / scenecut=40 / intra_refresh=0 / rc=2pass / mbtree=0 / bitrate=13600 / ratetol=1.0 / qcomp=0.60 / qpmin=0 / qpmax=69 / qpstep=4 / cplxblur=20.0 / qblur=0.5 / ip_ratio=1.40 / pb_ratio=1.30 / aq=1:1.00
Language : English
Default : Yes
Forced : No

Audio
ID : 2
Format : DTS
Format/Info : Digital Theater Systems
Codec ID : A_DTS
Duration : 1 h 50 min
Bit rate mode : Constant
Bit rate : 1 510 kb/s
Channel(s) : 6 channels
Channel layout : C L R Ls Rs LFE
Sampling rate : 48.0 kHz
Frame rate : 93.750 FPS (512 SPF)
Bit depth : 24 bits
Compression mode : Lossy
Stream size : 1.17 GiB (10%)
Language : English
Default : Yes
Forced : No

Text
ID : 3
Format : UTF-8
Codec ID : S_TEXT/UTF8
Codec ID/Info : UTF-8 Plain Text
Language : English
Default : No
Forced : No

Menu
00:00:00.000 : en:
00:04:43.991 : en:
00:11:03.496 : en:
00:15:20.419 : en:
00:19:55.359 : en:
00:25:37.619 : en:
00:31:14.163 : en:
00:36:58.090 : en:
00:44:20.866 : en:
00:48:04.172 : en:
00:54:05.116 : en:
01:02:10.643 : en:
01:07:16.657 : en:
01:11:21.318 : en:
01:16:56.028 : en:
01:21:52.991 : en:
01:26:12.417 : en:
01:34:46.389 : en:
01:42:00.948 : en:
01:46:02.022 : en:





1 个附件 售价 大小 下载 时间

Honey.2.2011.1080p.BluRay.x264.DTS-FGT.torrent 0 金币 58.90K 490 次 5月前

#1楼
发帖时间:2019-07-08 16:11:16   |   回复数:3
blue23
隐世仙人♂
感谢楼主分享
5月前 #2楼
911degrees
隐世仙人♂
非常感谢,谢谢分享
5月前 #3楼
liyouchai
隐世仙人♂
谢谢楼主分享资源
5月前 #4楼
游客组