conanlcg
超级版主

[2011] [欧美] [剧情] [BD-1080P] 圣诞公主 A.Princess.for.Christmas.2011.1080p.BluRay.x264-NOSCREENS 6.56GB

-->

帖子完整标题:圣诞公主 A.Princess.for.Christmas.2011.1080p.BluRay.x264-NOSCREENS 6.56GB




◎译  名 圣诞公主 / A Princess for Christmas
◎片  名 A Princess for Christmas
◎年  代 2011
◎产  地 美国
◎类  别 剧情 / 喜剧 / 家庭
◎语  言 英语
◎上映日期 2011-11(美国)
◎IMDb评分 6.5/10 from 6025 users
◎IMDb链接 http://www.imdb.com/title/tt1083448
◎豆瓣评分 5.6/10 from 98 users
◎豆瓣链接 https://movie.douban.com/subject/3195806/
◎导  演 Michael Damian
◎编  剧 Michael Damian / Janeen Damian
◎主  演 Roger Moore
      Katie McGrath
      Travis Turner
      Sam Heughan


◎标  签 爱情 | 喜剧 | 美国 | 电影 | 美国电影 | KatieMcGrath | 2011 | 美剧

◎简  介

  Jules Daly(Katie McGrath,《梅林传奇》)最近快忙晕了。自从姐姐和姐夫遭遇可怕的意外不幸丧生后,她便成了外甥Milo(Travis Turner)和外甥女Maddie(Leilah De Meza)的监护人。她整晚都要照顾这两个调皮的家伙,白天根本无心工作,以至于被老板解雇;她的车子老是出毛病;Milo和Maddie的恶作剧已经吓怕了至少一打保姆……天底下还有多少倒霉事在等着她呢?
穿着考究的英国男管家Paisley Winterbottom(Miles Richardson)的到来或许会改变Jules的命运。他自称是孩子的祖父Edward公爵(Roger Moore,原007的扮演者)派来的,邀请一家人前往英国共度圣诞。Edward公爵一辈子没有和儿子打过交道,但是儿子死后他突然想看看自己的孙儿孙女。Jules一开始想拒绝,但最终还是去了。那种奢华到极致的生活让Jules发晕!她变得笨拙、尴尬、笑话频出,但她也逐渐将自己的影响力带进了这个家庭。
At the invitation of an estranged relative, a young woman travels with her niece and nephew to a castle in Europe for Christmas where she unwittingly falls for a dashing Prince.
An enchanting tale that will touch your heart and leave you full of the festive spirit! It's Christmas time and when Jules (Katie McGrath, BBC Series Merlin) receives an unexpected invitation from a distant relative she travels to Europe with her niece and nephew to a fairytale castle. As they try to instill, in their stuffy, British family, the true magic of Christmas, Jules discovers that sometimes what you're searching for can be found in the most unexpected of places... Featuring an all-star cast (including Roger Moore), this heart-warming and magical motion picture can be enjoyed by the whole family over and over again.

Video
ID : 2
Format : AVC
Format/Info : Advanced Video Codec
Format profile : [email protected]
Format settings : CABAC / 4 Ref Frames
Format settings, CABAC : Yes
Format settings, ReFrames : 4 frames
Codec ID : V_MPEG4/ISO/AVC
Duration : 1 h 30 min
Bit rate : 8 870 kb/s
Width : 1 920 pixels
Height : 1 080 pixels
Display aspect ratio : 16:9
Frame rate mode : Constant
Frame rate : 23.976 (24000/1001) FPS
Color space : YUV
Chroma subsampling : 4:2:0
Bit depth : 8 bits
Scan type : Progressive
Bits/(Pixel*Frame) : 0.178
Stream size : 5.48 GiB (83%)
Writing library : x264 core 128 r2216 198a7ea
Encoding settings : cabac=1 / ref=4 / deblock=1:0:0 / analyse=0x3:0x113 / me=umh / subme=7 / psy=1 / psy_rd=1.00:0.00 / mixed_ref=1 / me_range=16 / chroma_me=1 / trellis=1 / 8x8dct=1 / cqm=0 / deadzone=21,11 / fast_pskip=1 / chroma_qp_offset=-2 / threads=6 / lookahead_threads=1 / sliced_threads=0 / nr=0 / decimate=1 / interlaced=0 / bluray_compat=0 / constrained_intra=0 / bframes=3 / b_pyramid=2 / b_adapt=1 / b_bias=0 / direct=1 / weightb=1 / open_gop=0 / weightp=2 / keyint=240 / keyint_min=23 / scenecut=40 / intra_refresh=0 / rc_lookahead=40 / rc=2pass / mbtree=1 / bitrate=8870 / ratetol=1.0 / qcomp=0.60 / qpmin=0 / qpmax=69 / qpstep=4 / cplxblur=20.0 / qblur=0.5 / ip_ratio=1.40 / aq=1:1.00
Language : English
Default : Yes
Forced : No

Audio
ID : 1
Format : DTS
Format/Info : Digital Theater Systems
Codec ID : A_DTS
Duration : 1 h 30 min
Bit rate mode : Constant
Bit rate : 1 509 kb/s
Channel(s) : 6 channels
Channel positions : Front: L C R, Side: L R, LFE
Sampling rate : 48.0 kHz
Frame rate : 93.750 FPS (512 SPF)
Bit depth : 24 bits
Compression mode : Lossy
Stream size : 976 MiB (15%)
Language : English
Default : Yes
Forced : No

Menu
00:00:00.000 : en:00:00:00.000
00:05:12.854 : en:00:05:12.854
00:12:40.385 : en:00:12:40.385
00:20:05.538 : en:00:20:05.538
00:29:19.591 : en:00:29:19.591
00:37:02.470 : en:00:37:02.470
00:45:18.507 : en:00:45:18.507
00:50:31.028 : en:00:50:31.028
00:58:35.137 : en:00:58:35.137
01:06:34.699 : en:01:06:34.699
01:15:26.272 : en:01:15:26.272
01:22:50.507 : en:01:22:50.507





1 个附件 售价 大小 下载 时间

A.Princess.for.Christmas.2011.1080p.BluRay.x264-NOSCREENS.torrent 0 金币 66.14K 294 次 1月前

#1楼
发帖时间:2019-07-08 17:07:49   |   回复数:3
blue23
隐世仙人♂
感谢楼主分享
1月前 #2楼
911degrees
隐世仙人♂
非常感谢,谢谢分享
1月前 #3楼
liyouchai
隐世仙人♂
谢谢楼主分享资源
1月前 #4楼
游客组