conanlcg
超级版主

[2011] [欧美] [剧情] [WEB-720P] 纵情地带 The.Zone.2011.720p.AMZN.WEBRip.DDP2.0.x264-NTG 3.07GB

-->

帖子完整标题:纵情地带 The.Zone.2011.720p.AMZN.WEBRip.DDP2.0.x264-NTG 3.07GB




◎译  名 纵情地带
◎片  名 The Zone
◎年  代 2011
◎产  地 美国
◎类  别 剧情
◎语  言 英语
◎上映日期 2012-04-19(美国)
◎IMDb评分 5.1/10 from 118 users
◎IMDb链接 http://www.imdb.com/title/tt2160413
◎豆瓣评分 0/10 from 0 users
◎豆瓣链接 https://movie.douban.com/subject/25809658/
◎导  演 Joe Swanberg
◎编  剧 Joe Swanberg
◎主  演 Kentucker Audley
      Dustin Guy Defa
      Lawrence Michael Levine


◎标  签 SwanbergJoe | 情色

◎简  介

  暂无相关剧情介绍

Video
ID : 1
Format : AVC
Format/Info : Advanced Video Codec
Format profile : [email protected]
Format settings : CABAC / 4 Ref Frames
Format settings, CABAC : Yes
Format settings, ReFrames : 4 frames
Format settings, GOP : M=4, N=48
Codec ID : V_MPEG4/ISO/AVC
Duration : 1 h 12 min
Bit rate mode : Constant
Bit rate : 6 000 kb/s
Width : 1 280 pixels
Height : 720 pixels
Display aspect ratio : 16:9
Frame rate mode : Constant
Frame rate : 23.976 (24000/1001) FPS
Color space : YUV
Chroma subsampling : 4:2:0
Bit depth : 8 bits
Scan type : Progressive
Bits/(Pixel*Frame) : 0.272
Stream size : 2.96 GiB (96%)
Language : English
Default : Yes
Forced : No
Color range : Limited
Color primaries : BT.709
Transfer characteristics : BT.709
Matrix coefficients : BT.709

Audio
ID : 2
Format : E-AC-3
Format/Info : Enhanced AC-3
Commercial name : Dolby Digital Plus
Codec ID : A_EAC3
Duration : 1 h 12 min
Bit rate mode : Constant
Bit rate : 224 kb/s
Channel(s) : 2 channels
Channel layout : L R
Sampling rate : 48.0 kHz
Frame rate : 31.250 FPS (1536 SPF)
Compression mode : Lossy
Stream size : 116 MiB (4%)
Language : English
Service kind : Complete Main
Default : Yes
Forced : No

Text #1
ID : 3
Format : UTF-8
Codec ID : S_TEXT/UTF8
Codec ID/Info : UTF-8 Plain Text
Duration : 1 h 9 min
Bit rate : 56 b/s
Count of elements : 704
Stream size : 28.7 KiB (0%)
Language : English
Default : No
Forced : No

Text #2
ID : 4
Format : UTF-8
Codec ID : S_TEXT/UTF8
Codec ID/Info : UTF-8 Plain Text
Duration : 1 h 10 min
Bit rate : 58 b/s
Count of elements : 786
Stream size : 30.4 KiB (0%)
Title : SDH
Language : English
Default : No
Forced : No





1 个附件 售价 大小 下载 时间

The.Zone.2011.720p.AMZN.WEBRip.DDP2.0.x264-NTG.torrent 0 金币 31.24K 1043 次 5月前

#1楼
发帖时间:2019-07-09 13:51:42   |   回复数:3
blue23
隐世仙人♂
感谢楼主分享
5月前 #2楼
911degrees
隐世仙人♂
非常感谢,谢谢分享
5月前 #3楼
liyouchai
隐世仙人♂
谢谢楼主分享资源
5月前 #4楼
游客组