conanlcg
超级版主

[2018] [欧美] [其他] [BD-1080P] 凶手或许就是你 You.Might.Be.the.Killer.2018.1080p.BluRay.x264-USURY 6.53GB

-->

帖子完整标题:凶手或许就是你 You.Might.Be.the.Killer.2018.1080p.BluRay.x264-USURY 6.53GB




◎译  名 凶手或许就是你
◎片  名 You Might Be the Killer
◎年  代 2018
◎产  地 美国
◎类  别 悬疑 / 恐怖
◎语  言 英语
◎上映日期 2018-09-21(奇幻电影节)
◎IMDb评分 6.1/10 from 2453 users
◎IMDb链接 http://www.imdb.com/title/tt8998472
◎豆瓣评分 4.8/10 from 237 users
◎豆瓣链接 https://movie.douban.com/subject/30337433/
◎片  长 87分钟
◎导  演 布雷特·西蒙斯 Brett Simmons
◎编  剧 Covis Berzoyne / 布雷特·西蒙斯 Brett Simmons / Thomas P. Vitale
◎主  演 弗兰·克朗茨 Fran Kranz
      艾丽森·汉妮根 Alyson Hannigan
      布列塔尼·S·霍尔 Brittany S. Hall
      简娜·哈维 Jenna Harvey
      布莱恩·普莱斯 Bryan Price
      帕特里克·R·沃克 Patrick R. Walker
      杰克·穆里略 Jack Murillo
      莎拉·凯瑟琳·贝勒米 Sara Catherine Bellamy
      萨凡娜·德索蒙 Savannah DesOrmeaux
      卡罗尔·简·威尔斯 Carol Jean Wells
      彼得·詹梅斯 Peter Jaymes Jr.
      奥利维亚·杰伊·布朗 Olivia Jaye Brown
      凯斯·大卫 Keith David


◎标  签 恐怖 | 美国 | 喜剧 | 黑色幽默 | 惊悚 | 犯罪 | 悬疑 | 2018

◎简  介

  一名夏令营辅导员发现自己被凶手围追堵截,他向他的恐怖电影爱好者朋友寻求建议,发誓要找出真凶,真凶不是别人,正是……

Video
ID : 1
Format : AVC
Format/Info : Advanced Video Codec
Format profile : [email protected]
Format settings : CABAC / 4 Ref Frames
Format settings, CABAC : Yes
Format settings, ReFrames : 4 frames
Codec ID : V_MPEG4/ISO/AVC
Duration : 1 h 27 min
Bit rate : 9 178 kb/s
Width : 1 920 pixels
Height : 1 080 pixels
Display aspect ratio : 16:9
Frame rate mode : Constant
Frame rate : 23.976 (24000/1001) FPS
Color space : YUV
Chroma subsampling : 4:2:0
Bit depth : 8 bits
Scan type : Progressive
Bits/(Pixel*Frame) : 0.185
Stream size : 5.60 GiB (86%)
Writing library : x264 core 157 r2969 d4099dd
Encoding settings : cabac=1 / ref=4 / deblock=1:-3:-3 / analyse=0x3:0x133 / me=umh / subme=9 / psy=1 / psy_rd=1.00:0.00 / mixed_ref=1 / me_range=16 / chroma_me=1 / trellis=2 / 8x8dct=1 / cqm=0 / deadzone=21,11 / fast_pskip=0 / chroma_qp_offset=-2 / threads=18 / lookahead_threads=1 / sliced_threads=0 / nr=0 / decimate=1 / interlaced=0 / bluray_compat=0 / constrained_intra=0 / bframes=3 / b_pyramid=2 / b_adapt=1 / b_bias=0 / direct=3 / weightb=1 / open_gop=0 / weightp=2 / keyint=240 / keyint_min=24 / scenecut=40 / intra_refresh=0 / rc_lookahead=50 / rc=2pass / mbtree=1 / bitrate=9178 / ratetol=1.0 / qcomp=0.60 / qpmin=0 / qpmax=69 / qpstep=4 / cplxblur=20.0 / qblur=0.5 / ip_ratio=1.40 / aq=1:1.00
Language : English
Default : Yes
Forced : No

Audio
ID : 2
Format : DTS
Format/Info : Digital Theater Systems
Codec ID : A_DTS
Duration : 1 h 27 min
Bit rate mode : Constant
Bit rate : 1 509 kb/s
Channel(s) : 6 channels
Channel layout : C L R Ls Rs LFE
Sampling rate : 48.0 kHz
Frame rate : 93.750 FPS (512 SPF)
Bit depth : 24 bits
Compression mode : Lossy
Stream size : 948 MiB (14%)
Language : English
Default : Yes
Forced : No

Text #1
ID : 3
Format : UTF-8
Codec ID : S_TEXT/UTF8
Codec ID/Info : UTF-8 Plain Text
Duration : 1 h 26 min
Bit rate : 63 b/s
Count of elements : 1695
Stream size : 40.2 KiB (0%)
Title : English
Language : English
Default : No
Forced : No

Text #2
ID : 4
Format : UTF-8
Codec ID : S_TEXT/UTF8
Codec ID/Info : UTF-8 Plain Text
Duration : 1 h 27 min
Bit rate : 71 b/s
Count of elements : 1910
Stream size : 45.7 KiB (0%)
Title : English SDH
Language : English
Default : No
Forced : No

Menu
00:00:00.000 : en:00:00:00.000
00:08:46.943 : en:00:08:46.943
00:15:18.876 : en:00:15:18.876
00:23:29.575 : en:00:23:29.575
00:31:38.355 : en:00:31:38.355
00:40:46.903 : en:00:40:46.903
00:47:18.169 : en:00:47:18.169
00:54:53.790 : en:00:54:53.790
01:02:21.655 : en:01:02:21.655
01:10:09.205 : en:01:10:09.205
01:17:11.001 : en:01:17:11.001
01:23:34.843 : en:01:23:34.843





1 个附件 售价 大小 下载 时间

You.Might.Be.the.Killer.2018.1080p.BluRay.x264-USURY.torrent 0 金币 33.39K 525 次 5月前

#1楼
发帖时间:2019-07-09 14:15:05   |   回复数:3
blue23
隐世仙人♂
感谢楼主分享
5月前 #2楼
911degrees
隐世仙人♂
非常感谢,谢谢分享
5月前 #3楼
liyouchai
隐世仙人♂
谢谢楼主分享资源
5月前 #4楼
游客组