conanlcg
超级版主

[2011] [其他] [剧情] [BD-1080P] 倩女幽魂 A.Chinese.Ghost.Story.2011.CHINESE.1080p.BluRay.x264.DTS-FGT 9.16GB

-->

帖子完整标题:倩女幽魂 A.Chinese.Ghost.Story.2011.CHINESE.1080p.BluRay.x264.DTS-FGT 9.16GB




◎译  名 A Chinese Fairy Tale / A Chinese Ghost Story / 倩女幽魂2011 / 新倩女幽魂 / 聊斋之倩女幽魂
◎片  名 倩女幽魂
◎年  代 2011
◎产  地 中国大陆 / 香港
◎类  别 剧情 / 惊悚 / 奇幻 / 古装
◎语  言 汉语普通话 / 粤语
◎上映日期 2011-04-19(中国大陆)
◎IMDb评分 5.7/10 from 1162 users
◎IMDb链接 http://www.imdb.com/title/tt1861421
◎豆瓣评分 5.3/10 from 92231 users
◎豆瓣链接 https://movie.douban.com/subject/3711760/
◎片  长 98分钟
◎导  演 叶伟信 Wilson Yip
◎编  剧 张炭 Cheung Tan
◎主  演 刘亦菲 Yifei Liu
      古天乐 Louis Koo
      余少群 Shaoqun Yu
      惠英红 Kara Hui
      樊少皇 Siu-Wong Fan
      林鹏 Peng Lin
      巩新亮 Miumiu
      王丹怡栗 Danyili Wang
      徐锦江 Elvis Tsui


◎标  签 爱情 | 古装 | 奇幻 | 中国 | 2011 | 香港 | 国产 | 内地

◎简  介

  燕赤霞(古天乐 饰)年轻时爱上了小倩(刘亦菲 饰),但出于猎妖师的责任,他只能忍痛割爱。他没有杀小倩,而是使之失忆。他和夏雪风雷(樊少皇 饰)联手对付黑山老妖(惠英红 饰),后者牺牲了左臂封住了老妖。某日,宁采臣(余少群 饰)被派到黑山村来帮村民寻找水源。村长(徐锦江 饰)等人明知山上有妖,却没有对他道出实情。在村民铁牙(李菁 饰)的陪同下,宁采臣带着一群死囚上山找水。当他们来到兰若寺,竟然发现了水源。而他也第一次遇到了小倩。两人一见钟情。此事被黑山老妖得知,严刑拷问。燕赤霞屡次劝阻宁采臣不要陷入人妖之恋,奈何后者与小倩情深意重,明知是妖,却屡屡犯险,毫无退意。燕赤霞感到纠结,而此时黑山老妖已经开始了她的复仇……

◎获奖情况

  第48届台北金马影展(2011)
  金马奖 最佳女配角(提名) 惠英红
  金马奖 最佳视觉效果(提名) 林延勋 / 韩泰晸 / 徐玄锡 / 徐京勋

  第2届豆瓣电影鑫像奖(2012)
  豆渣单元 最渣影片(华语)(提名)
  豆渣单元 最渣女演员(华语)(提名) 刘亦菲



Video
ID : 1
Format : AVC
Format/Info : Advanced Video Codec
Format profile : [email protected]
Format settings : CABAC / 4 Ref Frames
Format settings, CABAC : Yes
Format settings, ReFrames : 4 frames
Codec ID : V_MPEG4/ISO/AVC
Duration : 1 h 41 min
Bit rate : 11.5 Mb/s
Width : 1 916 pixels
Height : 816 pixels
Display aspect ratio : 2.35:1
Frame rate mode : Constant
Frame rate : 23.976 (24000/1001) FPS
Color space : YUV
Chroma subsampling : 4:2:0
Bit depth : 8 bits
Scan type : Progressive
Bits/(Pixel*Frame) : 0.307
Stream size : 8.12 GiB (89%)
Title : A.Chinese.Fairy.Tale.2011.CHINESE.1080p.BluRay.x264.DTS-FGT
Writing library : x264 core 148 r2795M aaa9aa8
Encoding settings : cabac=1 / ref=4 / deblock=1:-2:-2 / analyse=0x3:0x113 / me=umh / subme=9 / psy=1 / psy_rd=1.00:0.15 / mixed_ref=1 / me_range=16 / chroma_me=1 / trellis=2 / 8x8dct=1 / cqm=0 / deadzone=21,11 / fast_pskip=1 / chroma_qp_offset=-3 / threads=24 / lookahead_threads=3 / sliced_threads=0 / nr=0 / decimate=1 / interlaced=0 / bluray_compat=0 / constrained_intra=0 / bframes=3 / b_pyramid=2 / b_adapt=1 / b_bias=0 / direct=3 / weightb=1 / open_gop=0 / weightp=2 / keyint=250 / keyint_min=25 / scenecut=40 / intra_refresh=0 / rc_lookahead=50 / rc=2pass / mbtree=1 / bitrate=11500 / ratetol=1.0 / qcomp=0.60 / qpmin=0 / qpmax=69 / qpstep=4 / cplxblur=20.0 / qblur=0.5 / vbv_maxrate=31250 / vbv_bufsize=31250 / nal_hrd=none / filler=0 / ip_ratio=1.40 / aq=1:1.00
Language : Chinese
Default : Yes
Forced : No

Audio
ID : 2
Format : DTS
Format/Info : Digital Theater Systems
Codec ID : A_DTS
Duration : 1 h 38 min
Bit rate mode : Constant
Bit rate : 1 509 kb/s
Channel(s) : 6 channels
Channel layout : C L R Ls Rs LFE
Sampling rate : 48.0 kHz
Frame rate : 93.750 FPS (512 SPF)
Bit depth : 16 bits
Compression mode : Lossy
Stream size : 1.04 GiB (11%)
Title : A.Chinese.Fairy.Tale.2011.CHINESE.1080p.BluRay.x264.DTS-FGT
Language : Chinese
Default : Yes
Forced : No

Text
ID : 3
Format : UTF-8
Codec ID : S_TEXT/UTF8
Codec ID/Info : UTF-8 Plain Text
Duration : 1 h 34 min
Bit rate : 32 b/s
Count of elements : 958
Stream size : 22.7 KiB (0%)
Language : English
Default : Yes
Forced : No

Menu
00:00:00.000 : en:??? 01 ???
00:06:30.849 : en:??? 02 ???
00:11:47.040 : en:??? 03 ???
00:15:03.111 : en:??? 04 ???
00:21:09.685 : en:??? 05 ???
00:27:11.755 : en:??? 06 ???
00:31:55.122 : en:??? 07 ???
00:35:37.052 : en:??? 08 ???
00:40:49.280 : en:??? 09 ???
00:46:54.812 : en:??? 10 ???
00:49:29.800 : en:??? 11 ???
00:55:56.562 : en:??? 12 ???
00:59:49.461 : en:??? 13 ???
01:06:07.130 : en:??? 14 ???
01:10:35.648 : en:??? 15 ???
01:15:30.484 : en:??? 16 ???
01:20:33.454 : en:??? 17 ???
01:25:25.203 : en:??? 18 ???
01:30:30.383 : en:??? 19 ???
01:35:22.467 : en:??? 20 ???





1 个附件 售价 大小 下载 时间

A.Chinese.Ghost.Story.2011.CHINESE.1080p.BluRay.x264.DTS-FGT.torrent 0 金币 46.34K 1701 次 5月前

#1楼
发帖时间:2019-07-09 15:32:06   |   回复数:2
911degrees
隐世仙人♂
非常感谢,谢谢分享
5月前 #2楼
liyouchai
隐世仙人♂
谢谢楼主分享资源
5月前 #3楼
游客组