conanlcg
超级版主

[更 早] [其他] [剧情] [BD-1080P] 被遗忘的银色 Forgotten.Silver.1995.1080p.BluRay.x264-CiNEFiLE 4.37GB

-->

帖子完整标题:被遗忘的银色 Forgotten.Silver.1995.1080p.BluRay.x264-CiNEFiLE 4.37GB




◎译  名 被遗忘的银色
◎片  名 Forgotten Silver
◎年  代 1995
◎产  地 新西兰
◎类  别 剧情 / 喜剧 / 纪录片
◎语  言 英语 / 粤语
◎上映日期 1995-10-28
◎IMDb评分 7.5/10 from 5482 users
◎IMDb链接 http://tt0116344
◎豆瓣评分 7.9/10 from 174 users
◎豆瓣链接 https://movie.douban.com/subject/1424335/
◎导  演 彼得·杰克逊 Peter Jackson
◎主  演 彼得·杰克逊 Peter Jackson
      伦纳德马丁
      山姆·尼尔 Sam Neill


◎标  签 新西兰 | 彼得·杰克逊 | PeterJackson | 伪纪录片 | 纪录片 | 1995 | Peter_Jackson | 1990s

◎简  介

  彼得·杰克逊早期作品,这部纪录片以翔实的考察,细致地讲述了一段不为人知的电影史传奇,展现了一位默默无闻的新西兰人在20世纪初期为电影作出的革命性贡献。

Video
ID : 1
Format : AVC
Format/Info : Advanced Video Codec
Format profile : [email protected]
Format settings : CABAC / 4 Ref Frames
Format settings, CABAC : Yes
Format settings, ReFrames : 4 frames
Codec ID : V_MPEG4/ISO/AVC
Duration : 54 min 49 s
Bit rate : 9 911 kb/s
Width : 1 920 pixels
Height : 1 080 pixels
Display aspect ratio : 16:9
Frame rate mode : Constant
Frame rate : 23.976 (24000/1001) FPS
Color space : YUV
Chroma subsampling : 4:2:0
Bit depth : 8 bits
Scan type : Progressive
Bits/(Pixel*Frame) : 0.199
Stream size : 3.70 GiB (85%)
Writing library : x264 core 129 r2230 1cffe9f
Encoding settings : cabac=1 / ref=4 / deblock=1:0:0 / analyse=0x3:0x133 / me=umh / subme=7 / psy=1 / psy_rd=1.00:0.00 / mixed_ref=1 / me_range=16 / chroma_me=1 / trellis=1 / 8x8dct=1 / cqm=0 / deadzone=21,11 / fast_pskip=0 / chroma_qp_offset=-2 / threads=12 / lookahead_threads=2 / sliced_threads=0 / nr=0 / decimate=1 / interlaced=0 / bluray_compat=0 / constrained_intra=0 / bframes=3 / b_pyramid=2 / b_adapt=1 / b_bias=0 / direct=3 / weightb=1 / open_gop=0 / weightp=2 / keyint=240 / keyint_min=23 / scenecut=40 / intra_refresh=0 / rc_lookahead=40 / rc=2pass / mbtree=1 / bitrate=9911 / ratetol=1.0 / qcomp=0.60 / qpmin=0 / qpmax=69 / qpstep=4 / cplxblur=20.0 / qblur=0.5 / ip_ratio=1.40 / aq=1:1.00
Language : English
Default : Yes
Forced : No

Audio
ID : 2
Format : DTS
Format/Info : Digital Theater Systems
Codec ID : A_DTS
Duration : 54 min 49 s
Bit rate mode : Constant
Bit rate : 1 509 kb/s
Channel(s) : 2 channels
Channel positions : Front: L R
Sampling rate : 48.0 kHz
Frame rate : 93.750 FPS (512 SPF)
Bit depth : 24 bits
Compression mode : Lossy
Stream size : 592 MiB (13%)
Language : English
Default : Yes
Forced : No





2 个附件 售价 大小 下载 时间

I.Will.Follow.You.Down.2013.1080p.BluRay.x264-ROVERS.torrent 0 金币 66.07K 210 次 6天前

Forgotten.Silver.1995.1080p.BluRay.x264-CiNEFiLE.torrent 0 金币 87.92K 245 次 6天前

#1楼
发帖时间:2019-07-09 16:03:48   |   回复数:2
911degrees
隐世仙人♂
非常感谢,谢谢分享
6天前 #2楼
liyouchai
隐世仙人♂
谢谢楼主分享资源
6天前 #3楼
游客组