conanlcg
超级版主

[2011] [欧美] [其他] [BD-1080P] 鬼打墙/走投无路 Enter.Nowhere.2011.1080p.BluRay.x264-GETiT 7.95GB

-->

帖子完整标题:鬼打墙/走投无路 Enter.Nowhere.2011.1080p.BluRay.x264-GETiT 7.95GB




◎译  名 鬼打墙 / 走投无路
◎片  名 Enter Nowhere
◎年  代 2011
◎产  地 美国
◎类  别 悬疑 / 惊悚
◎语  言 英语
◎上映日期 2011-11-22
◎IMDb评分 6.6/10 from 7350 users
◎IMDb链接 http://www.imdb.com/title/tt1631707
◎豆瓣评分 7.4/10 from 10612 users
◎豆瓣链接 https://movie.douban.com/subject/10466341/
◎片  长 90分钟
◎导  演 杰克·海勒 Jack Heller
◎编  剧 肖恩·克里斯汀森 Shawn Christensen / Jason Dolan
◎主  演 萨拉·帕克斯顿 Sara Paxton
      斯科特·伊斯特伍德 Scott Eastwood
      肖恩·西珀斯 Shaun Sipos
      凯瑟琳·沃特斯顿 Katherine Waterston
      克里斯托弗·邓汉 Christopher Denham
      Jesse Perez


◎标  签 悬疑 | 美国 | 惊悚 | 穿越 | 科幻 | 恐怖 | 剧情 | 2011

◎简  介

  三个互相不认识的年轻人, 不约而同在林间迷路, 相聚在一个林间小屋中, 三个人怎麽走都走不出去, 困了许多天....渐渐的水与食物都已耗尽, 他们想办法一直要逃出这片树林, 终於发现了这间屋子藏着许多诡异的事件, 究竟这片树林与小屋藏着什麽神秘的力量呢? 他们是否能得救?


Video
ID : 1
Format : AVC
Format/Info : Advanced Video Codec
Format profile : [email protected]
Format settings : CABAC / 4 Ref Frames
Format settings, CABAC : Yes
Format settings, RefFrames : 4 frames
Codec ID : V_MPEG4/ISO/AVC
Duration : 1 h 26 min
Bit rate : 11.7 Mb/s
Width : 1 920 pixels
Height : 1 080 pixels
Display aspect ratio : 16:9
Frame rate mode : Constant
Frame rate : 25.000 FPS
Color space : YUV
Chroma subsampling : 4:2:0
Bit depth : 8 bits
Scan type : Progressive
Bits/(Pixel*Frame) : 0.225
Stream size : 7.04 GiB (89%)
Writing library : x264 core 152 r2851 ba24899
Encoding settings : cabac=1 / ref=4 / deblock=1:0:0 / analyse=0x3:0x133 / me=umh / subme=7 / psy=1 / psy_rd=1.00:0.00 / mixed_ref=1 / me_range=16 / chroma_me=1 / trellis=2 / 8x8dct=1 / cqm=0 / deadzone=21,11 / fast_pskip=0 / chroma_qp_offset=-2 / threads=12 / lookahead_threads=2 / sliced_threads=0 / nr=0 / decimate=1 / interlaced=0 / bluray_compat=0 / constrained_intra=0 / bframes=3 / b_pyramid=2 / b_adapt=1 / b_bias=0 / direct=3 / weightb=1 / open_gop=0 / weightp=2 / keyint=250 / keyint_min=25 / scenecut=40 / intra_refresh=0 / rc_lookahead=50 / rc=2pass / mbtree=1 / bitrate=11679 / ratetol=1.0 / qcomp=0.60 / qpmin=0 / qpmax=69 / qpstep=4 / cplxblur=20.0 / qblur=0.5 / ip_ratio=1.40 / aq=1:1.00
Language : English
Default : Yes
Forced : No

Audio
ID : 2
Format : DTS
Format/Info : Digital Theater Systems
Mode : 16
Format settings, Endianness : Big
Codec ID : A_DTS
Duration : 1 h 26 min
Bit rate mode : Constant
Bit rate : 1 509 kb/s
Channel(s) : 2 channels
Channel positions : Front: L R
Sampling rate : 48.0 kHz
Frame rate : 93.750 FPS (512 SPF)
Bit depth : 24 bits
Compression mode : Lossy
Stream size : 931 MiB (11%)
Title : DTS
Language : English
Default : Yes
Forced : No

Text
ID : 3
Format : UTF-8
Codec ID : S_TEXT/UTF8
Codec ID/Info : UTF-8 Plain Text
Duration : 1 h 18 min
Bit rate : 1 b/s
Count of elements : 39
Stream size : 938 Bytes (0%)
Title : forced eng
Language : English
Default : Yes
Forced : No

Menu
00:00:00.000 : en:00:00:00.000
00:03:39.240 : en:00:03:39.240
00:09:19.240 : en:00:09:19.240
00:14:59.760 : en:00:14:59.760
00:20:26.000 : en:00:20:26.000
00:29:29.520 : en:00:29:29.520
00:37:17.080 : en:00:37:17.080
00:52:14.440 : en:00:52:14.440
00:56:09.320 : en:00:56:09.320
01:04:14.880 : en:01:04:14.880
01:10:49.320 : en:01:10:49.320
01:20:26.120 : en:01:20:26.120





1 个附件 售价 大小 下载 时间

Enter.Nowhere.2011.1080p.BluRay.x264-GETiT.torrent 0 金币 80.29K 854 次 6天前

#1楼
发帖时间:2019-07-09 16:04:14   |   回复数:3
911degrees
隐世仙人♂
非常感谢,谢谢分享
6天前 #2楼
liyouchai
隐世仙人♂
谢谢楼主分享资源
6天前 #3楼
jokingcheung
一代宗师
谢谢分享
6天前 #4楼
游客组