conanlcg
超级版主

[2019] [欧美] [其他] [WEB-1080P] 蝙蝠侠:缄默 Batman.Hush.2019.1080p.WEB-DL.DD5.1.H264-FGT 3.06GB

-->

帖子完整标题:蝙蝠侠:缄默 Batman.Hush.2019.1080p.WEB-DL.DD5.1.H264-FGT 3.06GB




◎译  名 蝙蝠侠:缄默
◎片  名 Batman: Hush
◎年  代 2019
◎产  地 美国
◎类  别 动画
◎语  言 英语
◎上映日期 2019-07-20(美国)
◎IMDb链接 http://www.imdb.com/title/tt8752440
◎豆瓣评分 0/10 from 0 users
◎豆瓣链接 https://movie.douban.com/subject/30286712/
◎导  演 Justin Copeland
◎编  剧 厄尼·阿特巴克 Ernie Altbacker / 杰夫·洛布 Jeph Loeb / 吉姆·李 Jim Lee
◎主  演 杰森·奥玛拉 Jason O'Mara
      佩顿·利斯特 Peyton List
      莫瑞·史特林 Maury Sterling
      杰森·斯皮萨克 Jason Spisak
      佩顿·李斯特 Peyton R. List
      丽贝卡·罗梅恩 Rebecca Romijn
      詹妮弗·莫里森 Jennifer Morrison
      雷恩·威尔森 Rainn Wilson
      杰瑞·奥康奈尔 Jerry O'Connell
      塔拉·斯特朗 Tara Strong
      凡妮莎·威廉斯 Vanessa Williams
      吉奥弗瑞·阿伦德 Geoffrey Arend
      肖恩·马希尔 Sean Maher
      布鲁斯·托马斯 Bruce Thomas
      斯图尔特·艾伦 Stuart Allan


◎标  签 DC | 蝙蝠侠 | DC动漫 | 动画 | DC动画 | 2019 | 美国 | 待看

◎简  介

  影片改编自同名漫画,原著漫画讲述一个神秘的跟踪者名叫“缄默”,他似乎打算从远处暗杀蝙蝠侠。故事中有许多客串角色,其中包含了大量的蝙蝠侠反派,还有多位蝙蝠家族的成员以及和蝙蝠侠的老战友,超人。它还探索了蝙蝠侠和猫女之间的暧昧情愫。

Video
ID : 1
Format : AVC
Format/Info : Advanced Video Codec
Format profile : [email protected]
Format settings : CABAC / 4 Ref Frames
Format settings, CABAC : Yes
Format settings, Reference frames : 4 frames
Codec ID : V_MPEG4/ISO/AVC
Duration : 1 h 22 min
Bit rate : 4 955 kb/s
Width : 1 920 pixels
Height : 1 080 pixels
Display aspect ratio : 16:9
Frame rate mode : Constant
Frame rate : 23.976 FPS
Color space : YUV
Chroma subsampling : 4:2:0
Bit depth : 8 bits
Scan type : Progressive
Bits/(Pixel*Frame) : 0.100
Stream size : 2.84 GiB (93%)
Title : Batman.Hush.2019.1080p.WEB-DL.DD5.1.H264-FGT
Language : English
Default : Yes
Forced : No
Color range : Limited
Color primaries : BT.709
Transfer characteristics : BT.709
Matrix coefficients : BT.709

Audio
ID : 2
Format : AC-3
Format/Info : Audio Coding 3
Commercial name : Dolby Digital
Codec ID : A_AC3
Duration : 1 h 22 min
Bit rate mode : Constant
Bit rate : 384 kb/s
Channel(s) : 6 channels
Channel layout : L R C LFE Ls Rs
Sampling rate : 48.0 kHz
Frame rate : 31.250 FPS (1536 SPF)
Bit depth : 16 bits
Compression mode : Lossy
Stream size : 225 MiB (7%)
Title : Batman.Hush.2019.1080p.WEB-DL.DD5.1.H264-FGT
Language : English
Service kind : Complete Main
Default : Yes
Forced : No

Menu
00:00:00.000 : en:1
00:09:59.000 : en:2
00:18:57.000 : en:3
00:28:54.000 : en:4
00:37:33.000 : en:5
00:44:44.000 : en:6
00:50:49.000 : en:7
00:59:12.000 : en:8
01:07:59.000 : en:9
01:16:19.000 : en:10
01:18:53.000 : en:11





1 个附件 售价 大小 下载 时间

Batman.Hush.2019.1080p.WEB-DL.DD5.1.H264-FGT.torrent 0 金币 31.15K 2345 次 1月前

#1楼
发帖时间:2019-07-20 09:07:28   |   回复数:4
blue23
隐世仙人♂
感谢楼主分享
1月前 #2楼
911degrees
隐世仙人♂
非常感谢,谢谢分享
1月前 #3楼
18820774224
小有名气
谢谢楼主,我很喜欢DC动画片,故事性很强
1月前 #4楼
liyouchai
隐世仙人♂
谢谢楼主分享资源
1月前 #5楼
游客组