conanlcg
超级版主

[2018] [欧美] [喜剧] [WEB-1080P] 监管 Supervized.2019.1080p.WEB-DL.DD5.1.H264-FGT 2.99GB

-->

帖子完整标题:监管 Supervized.2019.1080p.WEB-DL.DD5.1.H264-FGT 2.99GB




◎译  名 监管
◎片  名 Supervized
◎年  代 2018
◎产  地 英国
◎类  别 喜剧
◎语  言 英语
◎上映日期 2018(英国)
◎IMDb链接 http://www.imdb.com/title/tt7302054
◎豆瓣评分 0/10 from 0 users
◎豆瓣链接 https://movie.douban.com/subject/30143886/
◎导  演 斯蒂夫·巴伦 Steve Barron
◎主  演 汤姆·贝伦杰
      菲奥娜·格拉斯科特 Fiona Glascott


◎简  介

  随着时间的推移,一个超级英雄退休在家慢慢变老。然而无聊的他准备最后再干一把刺激的事。

Video
ID : 1
Format : AVC
Format/Info : Advanced Video Codec
Format profile : [email protected]
Format settings : CABAC / 5 Ref Frames
Format settings, CABAC : Yes
Format settings, Reference frames : 5 frames
Codec ID : V_MPEG4/ISO/AVC
Duration : 1 h 27 min
Bit rate : 4 486 kb/s
Width : 1 912 pixels
Height : 792 pixels
Display aspect ratio : 2.40:1
Frame rate mode : Constant
Frame rate : 23.976 FPS
Color space : YUV
Chroma subsampling : 4:2:0
Bit depth : 8 bits
Scan type : Progressive
Bits/(Pixel*Frame) : 0.124
Stream size : 2.75 GiB (92%)
Title : Supervized.2019.1080p.WEB-DL.DD5.1.H264-FGT
Language : English
Default : Yes
Forced : No
Color range : Limited
Color primaries : BT.709
Transfer characteristics : BT.709
Matrix coefficients : BT.709

Audio
ID : 2
Format : AC-3
Format/Info : Audio Coding 3
Commercial name : Dolby Digital
Codec ID : A_AC3
Duration : 1 h 27 min
Bit rate mode : Constant
Bit rate : 384 kb/s
Channel(s) : 6 channels
Channel layout : L R C LFE Ls Rs
Sampling rate : 48.0 kHz
Frame rate : 31.250 FPS (1536 SPF)
Bit depth : 16 bits
Compression mode : Lossy
Stream size : 241 MiB (8%)
Title : Supervized.2019.1080p.WEB-DL.DD5.1.H264-FGT
Language : English
Service kind : Complete Main
Default : Yes
Forced : No

Text
ID : 3
Format : UTF-8
Codec ID : S_TEXT/UTF8
Codec ID/Info : UTF-8 Plain Text
Duration : 1 h 21 min
Bit rate : 107 b/s
Count of elements : 1536
Stream size : 64.7 KiB (0%)
Language : English
Default : Yes
Forced : No

Menu
00:00:00.000 : en:1
00:02:05.000 : en:2
00:13:47.000 : en:3
00:23:43.000 : en:4
00:34:20.000 : en:5
00:45:55.000 : en:6
00:58:23.000 : en:7
01:09:17.000 : en:8
01:20:58.000 : en:9
01:22:40.000 : en:10





1 个附件 售价 大小 下载 时间

Supervized.2019.1080p.WEB-DL.DD5.1.H264-FGT.torrent 0 金币 30.37K 245 次 1月前

#1楼
发帖时间:2019-07-20 09:27:44   |   回复数:3
blue23
隐世仙人♂
感谢楼主分享
1月前 #2楼
911degrees
隐世仙人♂
非常感谢,谢谢分享
1月前 #3楼
liyouchai
隐世仙人♂
谢谢楼主分享资源
1月前 #4楼
游客组