conanlcg
超级版主

[2016] [欧美] [喜剧] [BD-1080P] 击打不倒翁沙袋/冲亨利 Punching.Henry.2016.1080p.BluRay.x264-ROVERS 6.57GB

-->

帖子完整标题:击打不倒翁沙袋/冲亨利 Punching.Henry.2016.1080p.BluRay.x264-ROVERS 6.57GB




◎译  名 击打不倒翁沙袋 / 冲亨利
◎片  名 Punching Henry
◎年  代 2016
◎产  地 美国
◎类  别 喜剧
◎语  言 英语
◎上映日期 2016-03-13(西南偏南电影节)
◎IMDb评分 5.7/10 from 676 users
◎IMDb链接 http://www.imdb.com/title/tt4283414
◎豆瓣评分 0/10 from 0 users
◎豆瓣链接 https://movie.douban.com/subject/26300964/
◎片  长 98分钟
◎导  演 Gregori Viens
◎编  剧 Henry Phillips / Gregori Viens
◎主  演 Henry Phillips
      泰格·诺塔洛 Tig Notaro
      J·K·西蒙斯 J.K. Simmons
      Mark Cohen
      萨拉·西尔弗曼 Sarah Silverman
      Ellen Ratner
      迈克·乔吉 Mike Judge
      吉姆·杰弗里斯 Jim Jefferies
      Stephanie Allynne
      小克利夫顿·克林斯 Clifton Collins Jr.
      麦可拉·沃金丝 Michaela Watkins
      德里克·沃特斯 Derek Waters
      Doug Stanhope
      Wayne Federman
      艾什莉·约翰逊 Ashley Johnson


◎标  签 美国 | 音乐 | 喜剧 | 电影 | 民谣 | 2017 | 独立电影 | 格里高利·维森

◎简  介

  Still Punching The Clown follows Phillips' misadventures as a stand-up comic attempting to make a name for himself amid myriad trials and tribulations as he tries to balance success with artistic integrity.

Video
ID : 1
Format : AVC
Format/Info : Advanced Video Codec
Format profile : [email protected]
Format settings, CABAC : Yes
Format settings, ReFrames : 4 frames
Codec ID : V_MPEG4/ISO/AVC
Duration : 1h 33mn
Bit rate : 8 500 Kbps
Width : 1 920 pixels
Height : 1 040 pixels
Display aspect ratio : 1.85:1
Frame rate mode : Constant
Frame rate : 23.976 fps
Color space : YUV
Chroma subsampling : 4:2:0
Bit depth : 8 bits
Scan type : Progressive
Bits/(Pixel*Frame) : 0.178
Stream size : 5.56 GiB (85%)
Writing library : x264 core 148 r2744 b97ae06
Encoding settings : cabac=1 / ref=4 / deblock=1:0:0 / analyse=0x3:0x133 / me=umh / subme=7 / psy=1 / psy_rd=1.00:0.00 / mixed_ref=1 / me_range=16 / chroma_me=1 / trellis=1 / 8x8dct=1 / cqm=0 / deadzone=21,11 / fast_pskip=0 / chroma_qp_offset=-2 / threads=32 / lookahead_threads=5 / sliced_threads=0 / nr=0 / decimate=1 / interlaced=0 / bluray_compat=0 / constrained_intra=0 / bframes=3 / b_pyramid=2 / b_adapt=1 / b_bias=0 / direct=1 / weightb=1 / open_gop=0 / weightp=2 / keyint=250 / keyint_min=23 / scenecut=40 / intra_refresh=0 / rc_lookahead=40 / rc=2pass / mbtree=1 / bitrate=8500 / ratetol=1.0 / qcomp=0.60 / qpmin=0 / qpmax=69 / qpstep=4 / cplxblur=20.0 / qblur=0.5 / ip_ratio=1.40 / aq=1:1.00
Language : English
Default : Yes
Forced : No

Audio
ID : 2
Format : DTS
Format/Info : Digital Theater Systems
Mode : 16
Format settings, Endianness : Big
Codec ID : A_DTS
Duration : 1h 33mn
Bit rate mode : Constant
Bit rate : 1 509 Kbps
Channel(s) : 6 channels
Channel positions : Front: L C R, Side: L R, LFE
Sampling rate : 48.0 KHz
Frame rate : 93.750 fps (512 spf)
Bit depth : 24 bits
Compression mode : Lossy
Stream size : 1 012 MiB (15%)
Language : English
Default : Yes
Forced : No

Menu
00:00:00.000 : en:00:00:00.000
00:08:32.345 : en:00:08:32.345
00:15:24.966 : en:00:15:24.966
00:21:20.321 : en:00:21:20.321
00:28:33.587 : en:00:28:33.587
00:37:46.890 : en:00:37:46.890
00:44:52.857 : en:00:44:52.857
00:53:57.484 : en:00:53:57.484
00:59:35.614 : en:00:59:35.614
01:07:21.913 : en:01:07:21.913
01:15:12.967 : en:01:15:12.967
01:23:09.610 : en:01:23:09.610
01:28:35.644 : en:01:28:35.644





1 个附件 售价 大小 下载 时间

Punching.Henry.2016.1080p.BluRay.x264-ROVERS.torrent 0 金币 132.19K 217 次 1月前

#1楼
发帖时间:2019-07-20 11:40:53   |   回复数:3
blue23
隐世仙人♂
感谢楼主分享
1月前 #2楼
liyouchai
隐世仙人♂
谢谢楼主分享资源
1月前 #3楼
911degrees
隐世仙人♂
非常感谢,谢谢分享
1月前 #4楼
游客组