conanlcg
超级版主

[更 早] [欧美] [其他] [BD-1080P] 地獄神鎗 Posse.from.Hell.1961.1080p.BluRay.x264-GUACAMOLE 6.56GB

-->

帖子完整标题:地獄神鎗 Posse.from.Hell.1961.1080p.BluRay.x264-GUACAMOLE 6.56GB




◎译  名 地獄神鎗(港)
◎片  名 Posse from Hell
◎年  代 1961
◎产  地 美国
◎类  别 西部
◎语  言 英语
◎上映日期 1961
◎IMDb评分 6.7/10 from 702 users
◎IMDb链接 http://www.imdb.com/title/tt0055318
◎豆瓣评分 0/10 from 0 users
◎豆瓣链接 https://movie.douban.com/subject/5059406/
◎片  长 89 分钟
◎导  演 Herbert Coleman
◎编  剧 Clair Huffaker
◎主  演 奥迪·墨菲 Audie Murphy
      约翰·萨克松 John Saxon
      佐拉·兰帕特 Zohra Lampert


◎标  签 西部片 | 西部 | 美国 | 1961 | LeeVanCleef | AudieMurphy | 7.4 | ***

◎简  介

  暂无相关剧情介绍

Video
ID : 1
Format : AVC
Format/Info : Advanced Video Codec
Format profile : [email protected]
Format settings : CABAC / 4 Ref Frames
Format settings, CABAC : Yes
Format settings, RefFrames : 4 frames
Codec ID : V_MPEG4/ISO/AVC
Duration : 1 h 28 min
Bit rate : 9 929 kb/s
Width : 1 920 pixels
Height : 1 040 pixels
Display aspect ratio : 1.85:1
Frame rate mode : Constant
Frame rate : 23.976 (24000/1001) FPS
Color space : YUV
Chroma subsampling : 4:2:0
Bit depth : 8 bits
Scan type : Progressive
Bits/(Pixel*Frame) : 0.207
Stream size : 6.15 GiB (94%)
Writing library : x264 core 155 r2901 7d0ff22
Encoding settings : cabac=1 / ref=4 / deblock=1:0:0 / analyse=0x3:0x113 / me=umh / subme=8 / psy=1 / psy_rd=1.00:0.00 / mixed_ref=1 / me_range=16 / chroma_me=1 / trellis=2 / 8x8dct=1 / cqm=0 / deadzone=21,11 / fast_pskip=0 / chroma_qp_offset=-2 / threads=12 / lookahead_threads=2 / sliced_threads=0 / nr=0 / decimate=1 / interlaced=0 / bluray_compat=0 / constrained_intra=0 / bframes=3 / b_pyramid=2 / b_adapt=1 / b_bias=0 / direct=1 / weightb=1 / open_gop=0 / weightp=2 / keyint=250 / keyint_min=23 / scenecut=40 / intra_refresh=0 / rc_lookahead=50 / rc=2pass / mbtree=1 / bitrate=9929 / ratetol=1.0 / qcomp=0.60 / qpmin=0 / qpmax=69 / qpstep=4 / cplxblur=20.0 / qblur=0.5 / ip_ratio=1.40 / aq=1:1.00
Default : Yes
Forced : No

Audio
ID : 2
Format : DTS
Format/Info : Digital Theater Systems
Mode : 16
Format settings, Endianness : Big
Codec ID : A_DTS
Duration : 1 h 28 min
Bit rate mode : Constant
Bit rate : 639 kb/s
Channel(s) : 2 channels
Channel positions : Front: L R
Sampling rate : 48.0 kHz
Frame rate : 93.750 FPS (512 SPF)
Bit depth : 24 bits
Compression mode : Lossy
Stream size : 406 MiB (6%)
Language : English
Default : Yes
Forced : No





1 个附件 售价 大小 下载 时间

Posse.from.Hell.1961.1080p.BluRay.x264-GUACAMOLE.torrent 0 金币 131.80K 238 次 1月前

#1楼
发帖时间:2019-07-20 11:42:54   |   回复数:3
blue23
隐世仙人♂
感谢楼主分享
1月前 #2楼
liyouchai
隐世仙人♂
谢谢楼主分享资源
1月前 #3楼
911degrees
隐世仙人♂
非常感谢,谢谢分享
1月前 #4楼
游客组