conanlcg
超级版主

[2019] [欧美] [动作] [4K-原盘] 地狱男爵:血皇后崛起 Hellboy.2019.2160p.BluRay.REMUX.HEVC.DTS-HD.MA.TrueHD.7.1.Atmos-FGT 7

-->

帖子完整标题:地狱男爵:血皇后崛起 Hellboy.2019.2160p.BluRay.REMUX.HEVC.DTS-HD.MA.TrueHD.7.1.Atmos-FGT 71.94GB




◎译  名 地狱男爵:血皇后崛起 / Hellboy - Call of Darkness / Hellboy: Rise of the Blood Queen / 地狱怪客:血后的崛起(台)
◎片  名 Hellboy
◎年  代 2019
◎产  地 美国
◎类  别 动作 / 奇幻 / 冒险
◎语  言 英语
◎上映日期 2019-04-12(美国)
◎IMDb评分 5.3/10 from 22655 users
◎IMDb链接 http://www.imdb.com/title/tt2274648
◎豆瓣评分 6.1/10 from 4880 users
◎豆瓣链接 https://movie.douban.com/subject/24750460/
◎片  长 120分钟
◎导  演 尼尔·马歇尔 Neil Marshall
◎编  剧 安德鲁·考斯比 Andrew Cosby / 迈克·米格诺拉 Mike Mignola
◎主  演 大卫·哈伯 David Harbour
      米拉·乔沃维奇 Milla Jovovich
      金大贤 Daniel Dae Kim
      伊恩·麦柯肖恩 Ian McShane
      阿利斯泰·皮垂 Alistair Petrie
      萨莎·莱恩 Sasha Lane
      托马斯·哈登·丘奇 Thomas Haden Church
      佩内洛普·米契尔 Penelope Mitchell
      苏菲·奥康内多 Sophie Okonedo
      布莱恩·格里森 Brian Gleeson
      克里斯蒂娜·克莱伯 Kristina Klebe
      阿什丽·艾德纳 Ashley Edner
      道格拉斯·泰特 Douglas Tait
      贝恩·科拉科 Bern Colla?o
      阿塔纳斯·斯雷布雷夫 Atanas Srebrev
      凡妮莎·艾科尔兹 Vanessa Eichholz
      莱拉·莫尔斯 Laila Morse


◎标  签 奇幻 | 美国 | 漫画改编 | 2019 | 地狱男爵 | 动作 | 科幻 | 漫画英雄

◎简  介

  地狱男爵是二战期间被纳粹召唤到人间的恶魔之子,在被布鲁姆教授收养长大后逐渐学会了融入人类世界,成为了一名超自然力量调查员,然而一起关于末世的预言,令他陷入重重危机。与此同时,史上最强大的邪恶女巫血皇后正企图打破封印重返人间,并让瘟疫席卷地球。地狱男爵与通灵少女爱丽丝以及上校本·戴米奥,因此共同踏上了阻止血皇后的征程。

Video #1
ID : 1
Format : HEVC
Format/Info : High Efficiency Video Coding
Format profile : Main [email protected]@High
HDR format : SMPTE ST 2086, HDR10 compatible
Codec ID : V_MPEGH/ISO/HEVC
Duration : 2 h 1 min
Bit rate : 66.1 Mb/s
Width : 3 840 pixels
Height : 2 160 pixels
Display aspect ratio : 16:9
Frame rate mode : Constant
Frame rate : 23.976 (24000/1001) FPS
Color space : YUV
Chroma subsampling : 4:2:0 (Type 2)
Bit depth : 10 bits
Bits/(Pixel*Frame) : 0.332
Stream size : 55.9 GiB (78%)
Title : Hellboy.2019.2160p.BluRay.REMUX.HEVC.DTS-HD.MA.TrueHD.7.1.Atmos-FGT
Language : English
Default : Yes
Forced : No
Color range : Limited
Color primaries : BT.2020
Transfer characteristics : PQ
Matrix coefficients : BT.2020 non-constant
Mastering display color primaries : Display P3
Mastering display luminance : min: 0.0001 cd/m2, max: 4000 cd/m2
Maximum Content Light Level : 3947 cd/m2
Maximum Frame-Average Light Level : 542 cd/m2

Video #2
ID : 2
Format : HEVC
Format/Info : High Efficiency Video Coding
Format profile : Main [email protected]@High
HDR format : SMPTE ST 2086, HDR10 compatible
Codec ID : V_MPEGH/ISO/HEVC
Duration : 2 h 1 min
Bit rate : 7 652 kb/s
Width : 1 920 pixels
Height : 1 080 pixels
Display aspect ratio : 16:9
Frame rate mode : Constant
Frame rate : 23.976 (24000/1001) FPS
Color space : YUV
Chroma subsampling : 4:2:0 (Type 2)
Bit depth : 10 bits
Bits/(Pixel*Frame) : 0.154
Stream size : 6.47 GiB (9%)
Title : Hellboy.2019.2160p.BluRay.REMUX.HEVC.DTS-HD.MA.TrueHD.7.1.Atmos-FGT
Language : English
Default : No
Forced : No
Color range : Limited
Color primaries : BT.2020
Transfer characteristics : PQ
Matrix coefficients : BT.2020 non-constant
Mastering display color primaries : Display P3
Mastering display luminance : min: 0.0001 cd/m2, max: 4000 cd/m2

Audio #1
ID : 3
Format : MLP FBA 16-ch
Format/Info : Meridian Lossless Packing FBA with 16-channel presentation
Commercial name : Dolby TrueHD with Dolby Atmos
Codec ID : A_TRUEHD
Duration : 2 h 1 min
Bit rate mode : Variable
Bit rate : 5 255 kb/s
Maximum bit rate : 9 408 kb/s
Channel(s) : 8 channels
Channel layout : L R C LFE Ls Rs Lb Rb
Sampling rate : 48.0 kHz
Frame rate : 1 200.000 FPS (40 SPF)
Compression mode : Lossless
Stream size : 4.44 GiB (6%)
Title : Hellboy.2019.2160p.BluRay.REMUX.HEVC.DTS-HD.MA.TrueHD.7.1.Atmos-FGT
Language : English
Default : Yes
Forced : No
Number of dynamic objects : 15
Bed channel count : 1 channel
Bed channel configuration : LFE

Audio #2
ID : 4
Format : DTS XLL
Format/Info : Digital Theater Systems
Commercial name : DTS-HD Master Audio
Codec ID : A_DTS
Duration : 2 h 1 min
Bit rate mode : Variable
Bit rate : 4 387 kb/s
Channel(s) : 8 channels
Channel layout : C L R LFE Lb Rb Lss Rss
Sampling rate : 48.0 kHz
Frame rate : 93.750 FPS (512 SPF)
Bit depth : 24 bits
Compression mode : Lossless
Stream size : 3.71 GiB (5%)
Title : Hellboy.2019.2160p.BluRay.REMUX.HEVC.DTS-HD.MA.TrueHD.7.1.Atmos-FGT
Language : English
Default : No
Forced : No

Audio #3
ID : 5
Format : AC-3
Format/Info : Audio Coding 3
Commercial name : Dolby Digital
Codec ID : A_AC3
Duration : 2 h 1 min
Bit rate mode : Constant
Bit rate : 448 kb/s
Channel(s) : 6 channels
Channel layout : L R C LFE Ls Rs
Sampling rate : 48.0 kHz
Frame rate : 31.250 FPS (1536 SPF)
Bit depth : 16 bits
Compression mode : Lossy
Stream size : 388 MiB (1%)
Title : Hellboy.2019.2160p.BluRay.REMUX.HEVC.DTS-HD.MA.TrueHD.7.1.Atmos-FGT
Language : English
Service kind : Complete Main
Default : No
Forced : No

Audio #4
ID : 6
Format : AC-3
Format/Info : Audio Coding 3
Commercial name : Dolby Digital
Codec ID : A_AC3
Duration : 2 h 1 min
Bit rate mode : Constant
Bit rate : 448 kb/s
Channel(s) : 6 channels
Channel layout : L R C LFE Ls Rs
Sampling rate : 48.0 kHz
Frame rate : 31.250 FPS (1536 SPF)
Bit depth : 16 bits
Compression mode : Lossy
Stream size : 388 MiB (1%)
Title : Hellboy.2019.2160p.BluRay.REMUX.HEVC.DTS-HD.MA.TrueHD.7.1.Atmos-FGT
Language : Spanish
Service kind : Complete Main
Default : No
Forced : No

Audio #5
ID : 7
Format : AC-3
Format/Info : Audio Coding 3
Commercial name : Dolby Digital
Codec ID : A_AC3
Duration : 2 h 1 min
Bit rate mode : Constant
Bit rate : 448 kb/s
Channel(s) : 6 channels
Channel layout : L R C LFE Ls Rs
Sampling rate : 48.0 kHz
Frame rate : 31.250 FPS (1536 SPF)
Bit depth : 16 bits
Compression mode : Lossy
Stream size : 388 MiB (1%)
Title : Hellboy.2019.2160p.BluRay.REMUX.HEVC.DTS-HD.MA.TrueHD.7.1.Atmos-FGT
Language : French
Service kind : Complete Main
Default : No
Forced : No

Audio #6
ID : 8
Format : AC-3
Format/Info : Audio Coding 3
Commercial name : Dolby Digital
Codec ID : A_AC3
Duration : 2 h 1 min
Bit rate mode : Constant
Bit rate : 192 kb/s
Channel(s) : 2 channels
Channel layout : L R
Sampling rate : 48.0 kHz
Frame rate : 31.250 FPS (1536 SPF)
Bit depth : 16 bits
Compression mode : Lossy
Stream size : 166 MiB (0%)
Title : Hellboy.2019.2160p.BluRay.REMUX.HEVC.DTS-HD.MA.TrueHD.7.1.Atmos-FGT
Language : English
Service kind : Complete Main
Default : No
Forced : No

Text #1
ID : 9
Format : UTF-8
Codec ID : S_TEXT/UTF8
Codec ID/Info : UTF-8 Plain Text
Duration : 2 h 0 min
Bit rate : 52 b/s
Count of elements : 1379
Stream size : 46.0 KiB (0%)
Title : English-SRT
Language : English
Default : Yes
Forced : No

Text #2
ID : 10
Format : UTF-8
Codec ID : S_TEXT/UTF8
Codec ID/Info : UTF-8 Plain Text
Duration : 2 h 0 min
Bit rate : 61 b/s
Count of elements : 1732
Stream size : 54.0 KiB (0%)
Title : English-SDH-SRT
Language : English
Default : No
Forced : No

Text #3
ID : 11
Format : PGS
Muxing mode : zlib
Codec ID : S_HDMV/PGS
Codec ID/Info : Picture based subtitle format used on BDs/HD-DVDs
Duration : 2 h 0 min
Bit rate : 36.1 kb/s
Count of elements : 2726
Stream size : 31.1 MiB (0%)
Title : English-PGS
Language : English
Default : No
Forced : No

Text #4
ID : 12
Format : PGS
Muxing mode : zlib
Codec ID : S_HDMV/PGS
Codec ID/Info : Picture based subtitle format used on BDs/HD-DVDs
Duration : 2 h 0 min
Bit rate : 43.2 kb/s
Count of elements : 3464
Stream size : 37.2 MiB (0%)
Title : English-SDH-PGS
Language : English
Default : No
Forced : No

Text #5
ID : 13
Format : PGS
Muxing mode : zlib
Codec ID : S_HDMV/PGS
Codec ID/Info : Picture based subtitle format used on BDs/HD-DVDs
Duration : 2 h 0 min
Bit rate : 34.1 kb/s
Count of elements : 2600
Stream size : 29.4 MiB (0%)
Title : Spanish-PGS
Language : Spanish
Default : No
Forced : No

Text #6
ID : 14
Format : PGS
Muxing mode : zlib
Codec ID : S_HDMV/PGS
Codec ID/Info : Picture based subtitle format used on BDs/HD-DVDs
Duration : 1 h 50 min
Bit rate : 113 b/s
Count of elements : 12
Stream size : 91.5 KiB (0%)
Title : Spanish-FORCED_PGS
Language : Spanish
Default : No
Forced : No

Text #7
ID : 15
Format : PGS
Muxing mode : zlib
Codec ID : S_HDMV/PGS
Codec ID/Info : Picture based subtitle format used on BDs/HD-DVDs
Duration : 2 h 0 min
Bit rate : 41.5 kb/s
Count of elements : 3772
Stream size : 35.9 MiB (0%)
Title : French-PGS
Language : French
Default : No
Forced : No

Text #8
ID : 16
Format : PGS
Muxing mode : zlib
Codec ID : S_HDMV/PGS
Codec ID/Info : Picture based subtitle format used on BDs/HD-DVDs
Duration : 1 h 45 min
Bit rate : 577 b/s
Count of elements : 54
Stream size : 444 KiB (0%)
Title : French-FORCED-PGS
Language : French
Default : No
Forced : No

Menu
00:00:00.000 : en:Chapter 01
00:08:54.283 : en:Chapter 02
00:14:41.714 : en:Chapter 03
00:22:34.478 : en:Chapter 04
00:30:12.352 : en:Chapter 05
00:35:48.729 : en:Chapter 06
00:43:50.419 : en:Chapter 07
00:53:17.777 : en:Chapter 08
01:01:09.707 : en:Chapter 09
01:09:24.410 : en:Chapter 10
01:17:32.606 : en:Chapter 11
01:26:07.579 : en:Chapter 12
01:28:37.895 : en:Chapter 13
01:37:58.455 : en:Chapter 14
01:45:49.801 : en:Chapter 15
01:51:06.785 : en:Chapter 16





1 个附件 售价 大小 下载 时间

Hellboy.2019.2160p.BluRay.REMUX.HEVC.DTS-HD.MA.TrueHD.7.1.Atmos-FGT.torrent 0 金币 180.42K 1974 次 4月前

#1楼
发帖时间:2019-07-20 13:03:34   |   回复数:5
blue23
隐世仙人♂
感谢楼主分享
4月前 #2楼
lyj8882004
小有名气

求 1080 BD-Remux 

4月前 #3楼
tanchoohoon
武林盟主
感谢楼主的无私分享
4月前 #4楼
liyouchai
隐世仙人♂
谢谢楼主分享资源
4月前 #5楼
911degrees
隐世仙人♂
非常感谢,谢谢分享
4月前 #6楼
游客组