conanlcg
超级版主

[2018] [欧美] [剧情] [BD-Remux] JT·莱罗伊/JT·勒罗伊 JT.LeRoy.2018.1080p.BluRay.REMUX.AVC.DTS-HD.MA.5.1-FGT 23.90GB

-->

帖子完整标题:JT·莱罗伊/JT·勒罗伊 JT.LeRoy.2018.1080p.BluRay.REMUX.AVC.DTS-HD.MA.5.1-FGT 23.90GB




◎译  名 JT·莱罗伊 / JT·勒罗伊 / Jeremiah Terminator LeRoy
◎片  名 JT Leroy
◎年  代 2018
◎产  地 美国
◎类  别 剧情 / 传记
◎语  言 英语
◎上映日期 2018-09-10(多伦多电影节)
◎IMDb评分 5.4/10 from 491 users
◎IMDb链接 http://www.imdb.com/title/tt5460522
◎豆瓣评分 6.4/10 from 216 users
◎豆瓣链接 https://movie.douban.com/subject/26844189/
◎片  长 105分钟
◎导  演 贾斯汀·凯利 Justin Kelly
◎编  剧 贾斯汀·凯利 Justin Kelly
◎主  演 克里斯汀·斯图尔特 Kristen Stewart
      黛安·克鲁格 Diane Kruger
      劳拉·邓恩 Laura Dern
      吉姆·斯特吉斯 Jim Sturgess
      科特妮·洛芙 Courtney Love
      小凯文·哈里森 Kelvin Harrison Jr.
      詹姆斯·贾格尔 James Jagger
      艾丽西亚·约翰斯顿 Alicia Johnston
      大卫·劳伦斯·布朗 David Lawrence Brown
      Will Woytowich
      Craig Haas
      Jim Kirby
      Lorrie Papadopoulos
      Derek James Trapp


◎标  签 传记 | KristenStewart | 美国 | 女性 | 2018 | 美国电影 | 克里斯汀·斯图尔特 | 电影

◎简  介

  故事改编自真实事件,讲述1999年,一个名叫JT LeRoy的变性男子以作家身份走红,后被揭发此人的形象其实是捏造出来的:所谓他写的书,其实是一个叫Laura Albert(邓恩饰演)的女人写的,而他出现在公众面前的形象,是一个叫Savannah Knoop的女人(斯图尔特饰演)扮演的。

Video
ID : 1
Format : AVC
Format/Info : Advanced Video Codec
Format profile : [email protected]
Format settings : CABAC / 4 Ref Frames
Format settings, CABAC : Yes
Format settings, Reference frames : 4 frames
Codec ID : V_MPEG4/ISO/AVC
Duration : 1 h 48 min
Bit rate mode : Variable
Bit rate : 29.7 Mb/s
Maximum bit rate : 33.0 Mb/s
Width : 1 920 pixels
Height : 1 080 pixels
Display aspect ratio : 16:9
Frame rate mode : Constant
Frame rate : 23.976 (24000/1001) FPS
Color space : YUV
Chroma subsampling : 4:2:0
Bit depth : 8 bits
Scan type : Progressive
Bits/(Pixel*Frame) : 0.597
Stream size : 22.5 GiB (94%)
Title : JT.LeRoy.2018.1080p.BluRay.REMUX.AVC.DTS-HD.MA.5.1-FGT
Language : English
Default : No
Forced : No

Audio
ID : 2
Format : DTS XLL
Format/Info : Digital Theater Systems
Commercial name : DTS-HD Master Audio
Codec ID : A_DTS
Duration : 1 h 48 min
Bit rate mode : Variable
Bit rate : 1 754 kb/s
Channel(s) : 6 channels
Channel layout : C L R Ls Rs LFE
Sampling rate : 48.0 kHz
Frame rate : 93.750 FPS (512 SPF)
Bit depth : 16 bits
Compression mode : Lossless
Stream size : 1.33 GiB (6%)
Title : JT.LeRoy.2018.1080p.BluRay.REMUX.AVC.DTS-HD.MA.5.1-FGT
Language : English
Default : Yes
Forced : No

Text #1
ID : 3
Format : PGS
Muxing mode : zlib
Codec ID : S_HDMV/PGS
Codec ID/Info : Picture based subtitle format used on BDs/HD-DVDs
Duration : 1 h 47 min
Bit rate : 55.5 kb/s
Count of elements : 2920
Stream size : 42.7 MiB (0%)
Title : English-PGS
Language : English
Default : Yes
Forced : No

Text #2
ID : 4
Format : PGS
Muxing mode : zlib
Codec ID : S_HDMV/PGS
Codec ID/Info : Picture based subtitle format used on BDs/HD-DVDs
Duration : 1 h 47 min
Bit rate : 47.2 kb/s
Count of elements : 2678
Stream size : 36.4 MiB (0%)
Title : Spanish-PGS
Language : Spanish
Default : No
Forced : No

Text #3
ID : 5
Format : PGS
Muxing mode : zlib
Codec ID : S_HDMV/PGS
Codec ID/Info : Picture based subtitle format used on BDs/HD-DVDs
Duration : 104 ms
Bit rate : 5 384 b/s
Count of elements : 2
Stream size : 70.0 Bytes (0%)
Title : English-FORCED-PGS
Language : English
Default : No
Forced : No

Menu
00:00:00.000 : en:Chapter 01
00:07:19.147 : en:Chapter 02
00:13:24.053 : en:Chapter 03
00:18:06.960 : en:Chapter 04
00:28:05.100 : en:Chapter 05
00:38:47.867 : en:Chapter 06
00:44:31.377 : en:Chapter 07
00:55:51.681 : en:Chapter 08
01:04:24.861 : en:Chapter 09
01:16:40.012 : en:Chapter 10
01:24:29.731 : en:Chapter 11
01:36:59.605 : en:Chapter 12





1 个附件 售价 大小 下载 时间

JT.LeRoy.2018.1080p.BluRay.REMUX.AVC.DTS-HD.MA.5.1-FGT.torrent 0 金币 60.28K 336 次 4月前

#1楼
发帖时间:2019-07-20 13:17:26   |   回复数:3
blue23
隐世仙人♂
感谢楼主分享
4月前 #2楼
liyouchai
隐世仙人♂
谢谢楼主分享资源
4月前 #3楼
911degrees
隐世仙人♂
非常感谢,谢谢分享
4月前 #4楼
游客组