conanlcg
超级版主

[2019] [欧美] [剧情] [4K-原盘] 不可能的事/冰天奇迹 Breakthrough.2019.2160p.BluRay.REMUX.HEVC.DTS-HD.MA.7.1-FGT 50.71GB

-->

帖子完整标题:不可能的事/冰天奇迹 Breakthrough.2019.2160p.BluRay.REMUX.HEVC.DTS-HD.MA.7.1-FGT 50.71GB




◎译  名 不可能的事 / 冰天奇迹 / 奇迹的突破(港)
◎片  名 Breakthrough
◎年  代 2019
◎产  地 美国
◎类  别 剧情 / 传记
◎语  言 英语
◎上映日期 2019-04-17(美国)
◎IMDb评分 5.6/10 from 2606 users
◎IMDb链接 http://www.imdb.com/title/tt7083526
◎豆瓣评分 5.5/10 from 65 users
◎豆瓣链接 https://movie.douban.com/subject/30135924/
◎片  长 116分钟
◎导  演 罗斯安·道森 Roxann Dawson
◎编  剧 格兰特·尼波特 Grant Nieporte / 霍伊塞·史密斯 Joyce Smith
◎主  演 克丽丝·梅斯 Chrissy Metz
      托弗·戈瑞斯 Topher Grace
      乔什·卢卡斯 Josh Lucas
      马塞尔·鲁伊斯 Marcel Ruiz
      丹尼斯·海斯伯特 Dennis Haysbert
      丽贝卡·斯塔巴 Rebecca Staab
      山姆·特拉梅尔 Sam Trammell
      麦克·柯尔特 Mike Colter
      艾丽·斯考比 Ali Skovbye


◎标  签 美国 | 2019 | 剧情 | 信仰 | 爱 | 奇迹 | 亲情 | 二十世纪福克斯

◎简  介

  克丽丝·梅斯(《我们这一天》《美国恐怖故事》)将主演新片《不可能的事》(The Impossible),Fox 2000制作。基于Joyce Smith所著自传《The Impossible: The Miraculous Story of a Mother’s Faith and Her Child’s Resurrection》,讲述一个不同寻常的真实故事:Joyce14岁的儿子John在某个冬天掉进了密苏里州的一条冰河里,被宣告死亡,通过Joyce的祈祷和信仰,1个小时后,John的心脏再次跳动了起来,16天以后,John不靠外力走出了医院,完全康复了。
罗斯安·道森(《美国谍梦》《纸牌屋》)执导,Grant Nieporte(《七磅》)改编剧本,3月温尼伯开拍。

Video
ID : 1
Format : HEVC
Format/Info : High Efficiency Video Coding
Format profile : Main [email protected]@High
HDR format : SMPTE ST 2094 App 4, Version 1, HDR10+ Profile A compatible
Codec ID : V_MPEGH/ISO/HEVC
Duration : 1 h 56 min
Bit rate : 56.0 Mb/s
Width : 3 840 pixels
Height : 2 160 pixels
Display aspect ratio : 16:9
Frame rate mode : Constant
Frame rate : 23.976 (24000/1001) FPS
Color space : YUV
Chroma subsampling : 4:2:0 (Type 2)
Bit depth : 10 bits
Bits/(Pixel*Frame) : 0.282
Stream size : 45.5 GiB (90%)
Title : Breakthrough.2019.2160p.BluRay.REMUX.HEVC.DTS-HD.MA.7.1-FGT
Writing library : ATEME Titan File 3.9.0 (4.9.0.0)
Language : English
Default : No
Forced : No
Color range : Limited
Color primaries : BT.2020
Transfer characteristics : PQ
Matrix coefficients : BT.2020 non-constant
Mastering display color primaries : Display P3
Mastering display luminance : min: 0.0050 cd/m2, max: 1000 cd/m2

Audio #1
ID : 2
Format : DTS XLL
Format/Info : Digital Theater Systems
Commercial name : DTS-HD Master Audio
Codec ID : A_DTS
Duration : 1 h 56 min
Bit rate mode : Variable
Bit rate : 4 633 kb/s
Channel(s) : 8 channels
Channel layout : C L R LFE Lb Rb Lss Rss
Sampling rate : 48.0 kHz
Frame rate : 93.750 FPS (512 SPF)
Bit depth : 24 bits
Compression mode : Lossless
Stream size : 3.76 GiB (7%)
Title : Breakthrough.2019.2160p.BluRay.REMUX.HEVC.DTS-HD.MA.7.1-FGT
Language : English
Default : Yes
Forced : No

Audio #2
ID : 3
Format : AC-3
Format/Info : Audio Coding 3
Commercial name : Dolby Digital
Codec ID : A_AC3
Duration : 1 h 56 min
Bit rate mode : Constant
Bit rate : 448 kb/s
Channel(s) : 6 channels
Channel layout : L R C LFE Ls Rs
Sampling rate : 48.0 kHz
Frame rate : 31.250 FPS (1536 SPF)
Bit depth : 16 bits
Compression mode : Lossy
Stream size : 372 MiB (1%)
Title : Breakthrough.2019.2160p.BluRay.REMUX.HEVC.DTS-HD.MA.7.1-FGT
Language : English
Service kind : Complete Main
Default : No
Forced : No

Audio #3
ID : 4
Format : AC-3
Format/Info : Audio Coding 3
Commercial name : Dolby Digital
Codec ID : A_AC3
Duration : 1 h 56 min
Bit rate mode : Constant
Bit rate : 448 kb/s
Channel(s) : 6 channels
Channel layout : L R C LFE Ls Rs
Sampling rate : 48.0 kHz
Frame rate : 31.250 FPS (1536 SPF)
Bit depth : 16 bits
Compression mode : Lossy
Stream size : 372 MiB (1%)
Title : Breakthrough.2019.2160p.BluRay.REMUX.HEVC.DTS-HD.MA.7.1-FGT
Language : Spanish
Service kind : Complete Main
Default : No
Forced : No

Audio #4
ID : 5
Format : AC-3
Format/Info : Audio Coding 3
Commercial name : Dolby Digital
Codec ID : A_AC3
Duration : 1 h 56 min
Bit rate mode : Constant
Bit rate : 448 kb/s
Channel(s) : 6 channels
Channel layout : L R C LFE Ls Rs
Sampling rate : 48.0 kHz
Frame rate : 31.250 FPS (1536 SPF)
Bit depth : 16 bits
Compression mode : Lossy
Stream size : 372 MiB (1%)
Title : Breakthrough.2019.2160p.BluRay.REMUX.HEVC.DTS-HD.MA.7.1-FGT
Language : French
Service kind : Complete Main
Default : No
Forced : No

Audio #5
ID : 6
Format : AC-3
Format/Info : Audio Coding 3
Commercial name : Dolby Digital
Codec ID : A_AC3
Duration : 1 h 56 min
Bit rate mode : Constant
Bit rate : 224 kb/s
Channel(s) : 2 channels
Channel layout : L R
Sampling rate : 48.0 kHz
Frame rate : 31.250 FPS (1536 SPF)
Bit depth : 16 bits
Compression mode : Lossy
Stream size : 186 MiB (0%)
Title : Breakthrough.2019.2160p.BluRay.REMUX.HEVC.DTS-HD.MA.7.1-FGT
Language : English
Service kind : Complete Main
Default : No
Forced : No

Text #1
ID : 7
Format : UTF-8
Codec ID : S_TEXT/UTF8
Codec ID/Info : UTF-8 Plain Text
Duration : 1 h 53 min
Bit rate : 54 b/s
Count of elements : 1684
Stream size : 45.5 KiB (0%)
Title : English-SRT
Language : English
Default : Yes
Forced : No

Text #2
ID : 8
Format : UTF-8
Codec ID : S_TEXT/UTF8
Codec ID/Info : UTF-8 Plain Text
Duration : 1 h 54 min
Bit rate : 68 b/s
Count of elements : 2069
Stream size : 57.1 KiB (0%)
Title : English-SDH-SRT
Language : English
Default : No
Forced : No

Text #3
ID : 9
Format : PGS
Muxing mode : zlib
Codec ID : S_HDMV/PGS
Codec ID/Info : Picture based subtitle format used on BDs/HD-DVDs
Duration : 1 h 54 min
Bit rate : 74.4 kb/s
Count of elements : 4138
Stream size : 60.9 MiB (0%)
Title : Englsih-PGS
Language : English
Default : No
Forced : No

Text #4
ID : 10
Format : PGS
Muxing mode : zlib
Codec ID : S_HDMV/PGS
Codec ID/Info : Picture based subtitle format used on BDs/HD-DVDs
Duration : 1 h 55 min
Bit rate : 58.2 kb/s
Count of elements : 3336
Stream size : 48.0 MiB (0%)
Title : Spanish-PGS
Language : Spanish
Default : No
Forced : No

Text #5
ID : 11
Format : PGS
Muxing mode : zlib
Codec ID : S_HDMV/PGS
Codec ID/Info : Picture based subtitle format used on BDs/HD-DVDs
Duration : 1 h 55 min
Bit rate : 53.9 kb/s
Count of elements : 3222
Stream size : 44.4 MiB (0%)
Title : French-PGS
Language : French
Default : No
Forced : No

Text #6
ID : 12
Format : PGS
Muxing mode : zlib
Codec ID : S_HDMV/PGS
Codec ID/Info : Picture based subtitle format used on BDs/HD-DVDs
Duration : 1 h 55 min
Bit rate : 1 145 b/s
Count of elements : 46
Stream size : 967 KiB (0%)
Title : French-FORCED-PGS
Language : French
Default : No
Forced : No

Text #7
ID : 13
Format : PGS
Muxing mode : zlib
Codec ID : S_HDMV/PGS
Codec ID/Info : Picture based subtitle format used on BDs/HD-DVDs
Duration : 1 h 56 min
Bit rate : 133 kb/s
Count of elements : 4630
Stream size : 110 MiB (0%)
Title : English-COMMENTARY-PGS
Language : English
Default : No
Forced : No

Text #8
ID : 14
Format : PGS
Muxing mode : zlib
Codec ID : S_HDMV/PGS
Codec ID/Info : Picture based subtitle format used on BDs/HD-DVDs
Duration : 1 h 56 min
Bit rate : 94.6 kb/s
Count of elements : 4108
Stream size : 78.6 MiB (0%)
Title : Spanish-COMMENTARY-PGS
Language : Spanish
Default : No
Forced : No

Text #9
ID : 15
Format : PGS
Muxing mode : zlib
Codec ID : S_HDMV/PGS
Codec ID/Info : Picture based subtitle format used on BDs/HD-DVDs
Duration : 1 h 56 min
Bit rate : 99.7 kb/s
Count of elements : 4056
Stream size : 82.8 MiB (0%)
Title : French-COMMENTARY-PGS
Language : French
Default : No
Forced : No

Menu
00:00:00.000 : en:Chapter 01
00:04:29.435 : en:Chapter 02
00:08:12.533 : en:Chapter 03
00:15:41.106 : en:Chapter 04
00:22:07.242 : en:Chapter 05
00:24:59.915 : en:Chapter 06
00:30:03.635 : en:Chapter 07
00:35:26.124 : en:Chapter 08
00:40:45.401 : en:Chapter 09
00:45:39.194 : en:Chapter 10
00:49:40.686 : en:Chapter 11
00:55:18.064 : en:Chapter 12
00:59:48.626 : en:Chapter 13
01:04:34.579 : en:Chapter 14
01:08:44.286 : en:Chapter 15
01:12:40.105 : en:Chapter 16
01:18:37.003 : en:Chapter 17
01:26:36.316 : en:Chapter 18
01:31:12.925 : en:Chapter 19
01:37:36.809 : en:Chapter 20
01:41:48.644 : en:Chapter 21
01:45:39.291 : en:Chapter 22
01:48:00.849 : en:Chapter 23
01:51:55.583 : en:Chapter 24





1 个附件 售价 大小 下载 时间

Breakthrough.2019.2160p.BluRay.REMUX.HEVC.DTS-HD.MA.7.1-FGT.torrent 0 金币 127.34K 350 次 1月前

#1楼
发帖时间:2019-07-21 03:22:22   |   回复数:3
911degrees
隐世仙人♂
非常感谢,谢谢分享
1月前 #2楼
liyouchai
隐世仙人♂
谢谢楼主分享资源
1月前 #3楼
tanchoohoon
武林盟主
感谢楼主的无私分享
10天前 #4楼
游客组