conanlcg
超级版主

[2018] [欧美] [其他] [BD-Remux] 凶手或许就是你 You.Might.Be.the.Killer.2018.1080p.BluRay.REMUX.AVC.DTS-HD.MA.5.1-FGT 16

-->

帖子完整标题:凶手或许就是你 You.Might.Be.the.Killer.2018.1080p.BluRay.REMUX.AVC.DTS-HD.MA.5.1-FGT 16.83GB




◎译  名 凶手或许就是你
◎片  名 You Might Be the Killer
◎年  代 2018
◎产  地 美国
◎类  别 悬疑 / 恐怖
◎语  言 英语
◎上映日期 2018-09-21(奇幻电影节)
◎IMDb评分 6.1/10 from 2453 users
◎IMDb链接 http://www.imdb.com/title/tt8998472
◎豆瓣评分 4.8/10 from 237 users
◎豆瓣链接 https://movie.douban.com/subject/30337433/
◎片  长 87分钟
◎导  演 布雷特·西蒙斯 Brett Simmons
◎编  剧 Covis Berzoyne / 布雷特·西蒙斯 Brett Simmons / Thomas P. Vitale
◎主  演 弗兰·克朗茨 Fran Kranz
      艾丽森·汉妮根 Alyson Hannigan
      布列塔尼·S·霍尔 Brittany S. Hall
      简娜·哈维 Jenna Harvey
      布莱恩·普莱斯 Bryan Price
      帕特里克·R·沃克 Patrick R. Walker
      杰克·穆里略 Jack Murillo
      莎拉·凯瑟琳·贝勒米 Sara Catherine Bellamy
      萨凡娜·德索蒙 Savannah DesOrmeaux
      卡罗尔·简·威尔斯 Carol Jean Wells
      彼得·詹梅斯 Peter Jaymes Jr.
      奥利维亚·杰伊·布朗 Olivia Jaye Brown
      凯斯·大卫 Keith David


◎标  签 恐怖 | 美国 | 喜剧 | 黑色幽默 | 惊悚 | 犯罪 | 悬疑 | 2018

◎简  介

  一名夏令营辅导员发现自己被凶手围追堵截,他向他的恐怖电影爱好者朋友寻求建议,发誓要找出真凶,真凶不是别人,正是……

Video
ID : 1
Format : AVC
Format/Info : Advanced Video Codec
Format profile : [email protected]
Format settings : CABAC / 3 Ref Frames
Format settings, CABAC : Yes
Format settings, ReFrames : 3 frames
Format settings, GOP : M=3, N=12
Codec ID : V_MPEG4/ISO/AVC
Duration : 1 h 27 min
Bit rate mode : Variable
Bit rate : 24.7 Mb/s
Maximum bit rate : 35.0 Mb/s
Width : 1 920 pixels
Height : 1 080 pixels
Display aspect ratio : 16:9
Frame rate mode : Constant
Frame rate : 23.976 (24000/1001) FPS
Standard : NTSC
Color space : YUV
Chroma subsampling : 4:2:0
Bit depth : 8 bits
Scan type : Progressive
Bits/(Pixel*Frame) : 0.497
Stream size : 15.1 GiB (90%)
Title : You.Might.Be.the.Killer.2018.1080p.BluRay.REMUX.AVC.DTS-HD.MA.5.1-FGT
Language : English
Default : No
Forced : No
Color range : Limited
Color primaries : BT.709
Transfer characteristics : BT.709
Matrix coefficients : BT.709

Audio #1
ID : 2
Format : DTS XLL
Format/Info : Digital Theater Systems
Commercial name : DTS-HD Master Audio
Codec ID : A_DTS
Duration : 1 h 27 min
Bit rate mode : Variable
Bit rate : 2 627 kb/s
Channel(s) : 6 channels
Channel layout : C L R Ls Rs LFE
Sampling rate : 48.0 kHz
Frame rate : 93.750 FPS (512 SPF)
Bit depth : 24 bits
Compression mode : Lossless
Stream size : 1.61 GiB (10%)
Title : You.Might.Be.the.Killer.2018.1080p.BluRay.REMUX.AVC.DTS-HD.MA.5.1-FGT
Language : English
Default : Yes
Forced : No

Audio #2
ID : 3
Format : AC-3
Format/Info : Audio Coding 3
Commercial name : Dolby Digital
Codec ID : A_AC3
Duration : 1 h 27 min
Bit rate mode : Constant
Bit rate : 192 kb/s
Channel(s) : 2 channels
Channel layout : L R
Sampling rate : 48.0 kHz
Frame rate : 31.250 FPS (1536 SPF)
Bit depth : 16 bits
Compression mode : Lossy
Stream size : 121 MiB (1%)
Title : You.Might.Be.the.Killer.2018.1080p.BluRay.REMUX.AVC.DTS-HD.MA.5.1-FGT
Language : English
Service kind : Complete Main
Default : No
Forced : No

Text
ID : 4
Format : PGS
Muxing mode : zlib
Codec ID : S_HDMV/PGS
Codec ID/Info : Picture based subtitle format used on BDs/HD-DVDs
Duration : 1 h 27 min
Bit rate : 32.2 kb/s
Count of elements : 3818
Stream size : 20.0 MiB (0%)
Title : English-PGS
Language : English
Default : Yes
Forced : No

Menu
00:00:00.000 : en:Chapter 01
00:08:46.943 : en:Chapter 02
00:15:18.626 : en:Chapter 03
00:23:29.199 : en:Chapter 04
00:31:38.021 : en:Chapter 05
00:40:46.902 : en:Chapter 06
00:47:18.252 : en:Chapter 07
00:54:53.540 : en:Chapter 08
01:02:21.362 : en:Chapter 09
01:10:08.913 : en:Chapter 10
01:17:10.667 : en:Chapter 11
01:23:34.551 : en:Chapter 12





1 个附件 售价 大小 下载 时间

You.Might.Be.the.Killer.2018.1080p.BluRay.REMUX.AVC.DTS-HD.MA.5.1-FGT.torrent 0 金币 84.72K 301 次 1月前

#1楼
发帖时间:2019-07-21 03:30:21   |   回复数:2
911degrees
隐世仙人♂
非常感谢,谢谢分享
1月前 #2楼
liyouchai
隐世仙人♂
谢谢楼主分享资源
1月前 #3楼
游客组