conanlcg
超级版主

[2007] [欧美] [其他] [BD-1080P] 在世界尽头相遇/世界尽头的奇遇 Encounters.At.The.End.Of.The.World.2007.1080p.BluRay.x264-CiNEFi

-->

帖子完整标题:在世界尽头相遇/世界尽头的奇遇 Encounters.At.The.End.Of.The.World.2007.1080p.BluRay.x264-CiNEFiLE 7.95GB




◎译  名 在世界尽头相遇 / 世界尽头的奇遇 / 冰旅记事
◎片  名 Encounters at the End of the World
◎年  代 2007
◎产  地 美国
◎类  别 纪录片
◎语  言 英语 / 西班牙语
◎上映日期 2007-09-01
◎IMDb评分 7.8/10 from 16154 users
◎IMDb链接 http://www.imdb.com/title/tt1093824
◎豆瓣评分 8.8/10 from 8288 users
◎豆瓣链接 https://movie.douban.com/subject/2237378/
◎片  长 99 分钟
◎导  演 Werner Herzog
◎编  剧 Werner Herzog
◎主  演 Werner Herzog
      Samuel S. Bowser
      Regina Eisert
      David Ainley


◎标  签 纪录片 | 美国 | 南极 | 2007 | 自然 | 探险 | 旅行 | 人生

◎简  介

  这部纪录片的编剧、导演和旁白均由沃纳·赫尔佐格(Werner Herzog)来担当,记录了他与剧组前往南极洲拍摄当地生物、居民以及独特地理风貌的历程。这部纪录片并不是一部关于南极著名的企鹅的影片,而是去探索南极的人类生活,以及壮丽神奇的南极洲美景。他们前往由美国国家科学 基金会南极计划部门运作的南极洲最大的科学研究中心——位于罗斯岛的麦克默多站进行拍摄,在当地采访了一些在作业、后勤、IT和维护等方面提供支援的成员后,他们陆续前往海豹基地、潜水营地等南极洲人类扎营的地点,沿途遇到很多有意思的人,做了很多包括细胞生物学家塞缪尔·宝泽(Samuel Bowser)、动物学家占·保罗斯基(Jan Pawlowski)、企鹅研究学者大卫·安利(David Ainley)等在内的简短访谈。在某种程度上,他们拍摄探索的并不在于展现科研领域,而在向大众揭示一种独特的生命体验。
本片提名2009年第81届奥斯卡最佳纪录片奖。

◎获奖情况

  第81届奥斯卡金像奖(2009)
  最佳纪录长片(提名) 沃纳·赫尔佐格 / Henry Kaiser



Video
ID : 1
Format : AVC
Format/Info : Advanced Video Codec
Format profile : [email protected]
Format settings, CABAC : Yes
Format settings, ReFrames : 4 frames
Codec ID : V_MPEG4/ISO/AVC
Duration : 1h 40mn
Bit rate : 9 781 Kbps
Width : 1 920 pixels
Height : 1 080 pixels
Display aspect ratio : 16:9
Frame rate mode : Constant
Frame rate : 23.976 fps
Color space : YUV
Chroma subsampling : 4:2:0
Bit depth : 8 bits
Scan type : Progressive
Bits/(Pixel*Frame) : 0.197
Stream size : 6.73 GiB (85%)
Writing library : x264 core 73 r1243 2cd0054
Encoding settings : cabac=1 / ref=4 / deblock=1:0:0 / analyse=0x3:0x133 / me=umh / subme=7 / psy=1 / psy_rd=1.0:0.0 / mixed_ref=1 / me_range=16 / chroma_me=1 / trellis=1 / 8x8dct=1 / cqm=0 / deadzone=21,11 / chroma_qp_offset=-2 / threads=6 / nr=0 / decimate=1 / mbaff=0 / bframes=3 / b_pyramid=0 / b_adapt=1 / b_bias=0 / direct=1 / wpredb=1 / keyint=250 / keyint_min=25 / scenecut=40 / rc_lookahead=40 / rc=2pass / mbtree=1 / bitrate=9781 / ratetol=1.0 / qcomp=0.60 / qpmin=10 / qpmax=51 / qpstep=4 / cplxblur=20.0 / qblur=0.5 / ip_ratio=1.40 / aq=1:1.00
Language : English
Default : Yes
Forced : No

Audio
ID : 2
Format : DTS
Format/Info : Digital Theater Systems
Mode : 16
Format settings, Endianness : Big
Codec ID : A_DTS
Duration : 1h 40mn
Bit rate mode : Constant
Bit rate : 1 509 Kbps
Channel(s) : 6 channels
Channel positions : Front: L C R, Side: L R, LFE
Sampling rate : 48.0 KHz
Frame rate : 93.750 fps (512 spf)
Bit depth : 24 bits
Compression mode : Lossy
Stream size : 1.06 GiB (13%)
Language : English
Default : Yes
Forced : No

Text
ID : 3
Format : UTF-8
Codec ID : S_TEXT/UTF8
Codec ID/Info : UTF-8 Plain Text
Language : English
Default : No
Forced : No





1 个附件 售价 大小 下载 时间

Encounters.At.The.End.Of.The.World.2007.1080p.BluRay.x264-CiNEFiLE.torrent 0 金币 80.10K 833 次 4月前

#1楼
发帖时间:2019-07-21 06:05:11   |   回复数:4
911degrees
隐世仙人♂
非常感谢,谢谢分享
4月前 #2楼
liyouchai
隐世仙人♂
谢谢楼主分享资源
4月前 #3楼
jokingcheung
一代宗师
谢谢分享
4月前 #4楼
hkben
小有名气
真是感謝大大辛苦提供!!
4月前 #5楼
游客组