conanlcg
超级版主

[2011] [其他] [喜剧] [BD-1080P] 怪兽在巴黎 A.Monster.In.Paris.2011.1080p.BluRay.x264-MELiTE 6.62GB

-->

帖子完整标题:怪兽在巴黎 A.Monster.In.Paris.2011.1080p.BluRay.x264-MELiTE 6.62GB




◎译  名 怪兽在巴黎 / A Monster in Paris / 巴黎怪兽 / 巴黎怪物 / 巴黎萌兽 / 巴黎魅影
◎片  名 Un monstre à Paris
◎年  代 2011
◎产  地 法国
◎类  别 喜剧 / 动画 / 音乐 / 奇幻 / 冒险
◎语  言 法语
◎上映日期 2011-10-12(法国)
◎IMDb评分 6.7/10 from 18317 users
◎IMDb链接 http://www.imdb.com/title/tt0961097
◎豆瓣评分 7.6/10 from 15942 users
◎豆瓣链接 https://movie.douban.com/subject/3005387/
◎片  长 90分钟
◎导  演 毕鲍·鲍格朗 Bibo Bergeron
◎编  剧 毕鲍·鲍格朗 Bibo Bergeron / Stéphane Kazandjian
◎主  演 丹尼·赫斯顿 Danny Huston
      凯瑟琳·欧·哈拉 Catherine O'Hara
      亚当·戈德堡 Adam Goldberg
      凡妮莎·帕拉迪丝 Vanessa Paradis
      杰伊·哈灵顿 Jay Harrington


◎标  签 动画 | 法国 | 法国动画 | 音乐 | 爱情 | 2011 | 喜剧 | 动画片

◎简  介

  1910年,法国巴黎。电影院放映员埃米尔(Sébastien Desjours 配音)和他的朋友罗尔(Gad Elmaleh 配音)来到某科学家的实验室送货,科学家恰好不在,两个人胡乱动实验室的药品,结果引发大混乱,更令一只小跳蚤巨大化,变成恐怖的大怪物。怪物跳蚤逃出实验室,在巴黎引来了一阵骚乱和恐慌。而事实上,这只跳蚤温柔无辜,有着一颗纯洁的心。它偶然结识了美丽的酒吧驻唱歌手露西(Vanessa Paradis 配音),由此得名弗兰卡。弗兰卡具有令人惊叹的音乐天赋,它和露西的演出得到人们的欢迎。
而另一方面,贪心的警察局长却想消灭怪物以壮大自己的威信。为了保护弗兰卡,埃米尔、罗尔和露西通力合作……

Video
ID : 1
Format : AVC
Format/Info : Advanced Video Codec
Format profile : [email protected]
Format settings, CABAC : Yes
Format settings, ReFrames : 4 frames
Muxing mode : Header stripping
Codec ID : V_MPEG4/ISO/AVC
Duration : 1h 29mn
Bit rate : 8 936 Kbps
Width : 1 920 pixels
Height : 1 040 pixels
Display aspect ratio : 1.85:1
Frame rate mode : Constant
Frame rate : 23.976 fps
Color space : YUV
Chroma subsampling : 4:2:0
Bit depth : 8 bits
Scan type : Progressive
Bits/(Pixel*Frame) : 0.187
Stream size : 5.48 GiB (84%)
Title : Video
Writing library : x264 core 125 r2200 999b753
Encoding settings : cabac=1 / ref=4 / deblock=1:0:0 / analyse=0x3:0x133 / me=umh / subme=7 / psy=1 / psy_rd=1.00:0.00 / mixed_ref=1 / me_range=16 / chroma_me=1 / trellis=1 / 8x8dct=1 / cqm=0 / deadzone=21,11 / fast_pskip=0 / chroma_qp_offset=-2 / threads=12 / lookahead_threads=2 / sliced_threads=0 / nr=0 / decimate=1 / interlaced=0 / bluray_compat=0 / constrained_intra=0 / bframes=3 / b_pyramid=2 / b_adapt=2 / b_bias=0 / direct=3 / weightb=1 / open_gop=0 / weightp=2 / keyint=250 / keyint_min=23 / scenecut=40 / intra_refresh=0 / rc_lookahead=50 / rc=2pass / mbtree=1 / bitrate=8936 / ratetol=1.0 / qcomp=0.60 / qpmin=0 / qpmax=69 / qpstep=4 / cplxblur=20.0 / qblur=0.5 / ip_ratio=1.40 / aq=1:1.00
Language : English
Default : Yes
Forced : Yes

Audio
ID : 2
Format : DTS
Format/Info : Digital Theater Systems
Mode : 16
Format settings, Endianness : Big
Muxing mode : Header stripping
Codec ID : A_DTS
Duration : 1h 29mn
Bit rate mode : Constant
Bit rate : 1 509 Kbps
Channel(s) : 6 channels
Channel positions : Front: L C R, Side: L R, LFE
Sampling rate : 48.0 KHz
Bit depth : 24 bits
Compression mode : Lossy
Stream size : 970 MiB (14%)
Title : English Audio
Language : English
Default : Yes
Forced : Yes

Text
ID : 3
Format : UTF-8
Codec ID : S_TEXT/UTF8
Codec ID/Info : UTF-8 Plain Text
Title : English Subtitles
Language : English
Default : No
Forced : No





1 个附件 售价 大小 下载 时间

A.Monster.In.Paris.2011.1080p.BluRay.x264-MELiTE.torrent 0 金币 133.03K 770 次 4月前

#1楼
发帖时间:2019-07-21 06:07:02   |   回复数:2
911degrees
隐世仙人♂
非常感谢,谢谢分享
4月前 #2楼
liyouchai
隐世仙人♂
谢谢楼主分享资源
4月前 #3楼
游客组