conanlcg
超级版主

[2012] [欧美] [其他] [BD-1080P] 恐龙行星:终极杀手 Planet.Dinosaur.2012.1080p.BluRay.x264-MOOVEE 4.37GB

-->

帖子完整标题:恐龙行星:终极杀手 Planet.Dinosaur.2012.1080p.BluRay.x264-MOOVEE 4.37GB




◎译  名 恐龙行星:终极杀手
◎片  名 Planet Dinosaur: Ultimate Killers
◎年  代 2012
◎产  地 英国
◎类  别 纪录片
◎语  言 英语
◎上映日期 2012-08-19(英国)
◎IMDb评分 7.3/10 from 114 users
◎IMDb链接 http://www.imdb.com/title/tt2345864
◎豆瓣评分 0/10 from 0 users
◎豆瓣链接 https://movie.douban.com/subject/27035405/
◎片  长 53分钟
◎导  演 Nigel Paterson
◎编  剧 Tom Brass, Nigel Paterson
◎主  演 约翰·赫特 John Hurt


◎标  签 纪录片 | 恐龙 | 英国 | BBC

◎简  介

  Adapted from the multi-award winning BBC1 series, Planet Dinosaur Ultimate Killers recreates the lost world of the dinosaurs in a groundbreaking stereoscopic production.

Video
ID : 1
Format : AVC
Format/Info : Advanced Video Codec
Format profile : [email protected]
Format settings, CABAC : Yes
Format settings, ReFrames : 4 frames
Codec ID : V_MPEG4/ISO/AVC
Duration : 52mn 51s
Bit rate : 10.3 Mbps
Width : 1 920 pixels
Height : 1 080 pixels
Display aspect ratio : 16:9
Frame rate mode : Constant
Frame rate : 23.976 (24000/1001) fps
Color space : YUV
Chroma subsampling : 4:2:0
Bit depth : 8 bits
Scan type : Progressive
Bits/(Pixel*Frame) : 0.208
Stream size : 3.73 GiB (85%)
Writing library : x264 core 140 r2377 1ca7bb9
Encoding settings : cabac=1 / ref=4 / deblock=1:0:0 / analyse=0x3:0x133 / me=umh / subme=8 / psy=1 / psy_rd=1.00:0.00 / mixed_ref=1 / me_range=16 / chroma_me=1 / trellis=1 / 8x8dct=1 / cqm=0 / deadzone=21,11 / fast_pskip=0 / chroma_qp_offset=-2 / threads=18 / lookahead_threads=3 / sliced_threads=0 / nr=0 / decimate=1 / interlaced=0 / bluray_compat=0 / constrained_intra=0 / bframes=3 / b_pyramid=2 / b_adapt=1 / b_bias=0 / direct=1 / weightb=1 / open_gop=0 / weightp=2 / keyint=250 / keyint_min=23 / scenecut=40 / intra_refresh=0 / rc_lookahead=40 / rc=2pass / mbtree=1 / bitrate=10330 / ratetol=1.0 / qcomp=0.60 / qpmin=0 / qpmax=69 / qpstep=4 / cplxblur=20.0 / qblur=0.5 / ip_ratio=1.40 / aq=1:1.00
Language : English
Default : Yes
Forced : No

Audio
ID : 2
Format : DTS
Format/Info : Digital Theater Systems
Mode : 16
Format settings, Endianness : Big
Codec ID : A_DTS
Duration : 52mn 51s
Bit rate mode : Constant
Bit rate : 1 509 Kbps
Channel(s) : 6 channels
Channel positions : Front: L C R, Side: L R, LFE
Sampling rate : 48.0 KHz
Frame rate : 93.750 fps (512 spf)
Bit depth : 24 bits
Compression mode : Lossy
Stream size : 570 MiB (13%)
Default : Yes
Forced : No

Text
ID : 3
Format : UTF-8
Codec ID : S_TEXT/UTF8
Codec ID/Info : UTF-8 Plain Text
Title : English
Language : English
Default : No
Forced : No





1 个附件 售价 大小 下载 时间

Planet.Dinosaur.2012.1080p.BluRay.x264-MOOVEE.torrent 0 金币 88.03K 1288 次 1月前

#1楼
发帖时间:2019-07-30 22:54:02   |   回复数:3
blue23
隐世仙人♂
感谢楼主分享
1月前 #2楼
liyouchai
隐世仙人♂
谢谢楼主分享资源
1月前 #3楼
911degrees
隐世仙人♂
非常感谢,谢谢分享
1月前 #4楼
游客组