conanlcg
超级版主

[更 早] [其他] [其他] [BD-1080P] 人民希望奖牌 People.Hopes.Medals.1960.GERMAN.1080p.BluRay.x264.DTS-FGT 8.46GB

-->

帖子完整标题:人民希望奖牌 People.Hopes.Medals.1960.GERMAN.1080p.BluRay.x264.DTS-FGT 8.46GB




◎译  名 人民,希望,奖牌 / People, Hopes, Medals
◎片  名 Menschen, Hoffnungen, Medaillen
◎年  代 1960
◎产  地 西德 West Germany
◎类  别 纪录片
◎语  言 德语
◎上映日期 1960-03-14(瑞士)
◎IMDb评分 6.0/10 from 17 users
◎IMDb链接 http://www.imdb.com/title/tt1985144
◎豆瓣评分 0/10 from 0 users
◎豆瓣链接 https://movie.douban.com/subject/27170781/
◎导  演 Heribert Meisel

◎标  签 BDMV | 1960 | 100YearsofOlympicFilms

◎简  介

  暂无相关剧情介绍

Video
ID : 1
Format : AVC
Format/Info : Advanced Video Codec
Format profile : [email protected]
Format settings : CABAC / 4 Ref Frames
Format settings, CABAC : Yes
Format settings, Reference frames : 4 frames
Codec ID : V_MPEG4/ISO/AVC
Duration : 1 h 33 min
Bit rate : 11.5 Mb/s
Width : 1 480 pixels
Height : 1 080 pixels
Display aspect ratio : 1.370
Frame rate mode : Constant
Frame rate : 23.976 (24000/1001) FPS
Color space : YUV
Chroma subsampling : 4:2:0
Bit depth : 8 bits
Scan type : Progressive
Bits/(Pixel*Frame) : 0.300
Stream size : 7.47 GiB (88%)
Title : People.Hopes.Medals.1960.GERMAN.1080p.BluRay.x264.DTS-FGT
Writing library : x264 core 148 r2795M aaa9aa8
Encoding settings : cabac=1 / ref=4 / deblock=1:-2:-2 / analyse=0x3:0x113 / me=umh / subme=9 / psy=1 / psy_rd=1.00:0.15 / mixed_ref=1 / me_range=16 / chroma_me=1 / trellis=2 / 8x8dct=1 / cqm=0 / deadzone=21,11 / fast_pskip=1 / chroma_qp_offset=-3 / threads=24 / lookahead_threads=3 / sliced_threads=0 / nr=0 / decimate=1 / interlaced=0 / bluray_compat=0 / constrained_intra=0 / bframes=3 / b_pyramid=2 / b_adapt=1 / b_bias=0 / direct=3 / weightb=1 / open_gop=0 / weightp=2 / keyint=250 / keyint_min=25 / scenecut=40 / intra_refresh=0 / rc_lookahead=50 / rc=2pass / mbtree=1 / bitrate=11500 / ratetol=1.0 / qcomp=0.60 / qpmin=0 / qpmax=69 / qpstep=4 / cplxblur=20.0 / qblur=0.5 / vbv_maxrate=31250 / vbv_bufsize=31250 / nal_hrd=none / filler=0 / ip_ratio=1.40 / aq=1:1.00
Language : German
Default : Yes
Forced : No

Audio
ID : 2
Format : DTS
Format/Info : Digital Theater Systems
Codec ID : A_DTS
Duration : 1 h 32 min
Bit rate mode : Constant
Bit rate : 1 509 kb/s
Channel(s) : 1 channel
Channel layout : C
Sampling rate : 48.0 kHz
Frame rate : 93.750 FPS (512 SPF)
Bit depth : 16 bits
Compression mode : Lossy
Stream size : 1 003 MiB (12%)
Title : People.Hopes.Medals.1960.GERMAN.1080p.BluRay.x264.DTS-FGT
Language : German
Default : Yes
Forced : No

Text
ID : 3
Format : UTF-8
Codec ID : S_TEXT/UTF8
Codec ID/Info : UTF-8 Plain Text
Duration : 1 h 31 min
Bit rate : 49 b/s
Count of elements : 781
Stream size : 32.8 KiB (0%)
Language : English
Default : Yes
Forced : No

Menu
00:00:00.000 : en:Opening Ceremony
00:10:15.990 : en:Womena€?s Downhill
00:18:01.289 : en:Pairs Skating
00:22:53.706 : en:Announcing Innsbruck 1964
00:23:59.730 : en:Coping with the Snow
00:25:03.836 : en:Mena€?s Downhill
00:34:16.763 : en:Womena€?s Giant Slalom
00:38:16.794 : en:Ice Hockey
00:43:12.632 : en:50-kilometer Cross-country Skiing
00:49:16.996 : en:Nordic Combined
00:52:06.040 : en:Ski Jumping
00:56:25.799 : en:Womena€?s Figure Skating
01:00:52.232 : en:Mena€?s Giant Slalom
01:05:01.689 : en:10,000-meter Speed Skating
01:08:31.065 : en:Womena€?s Slalom
01:14:54.073 : en:Mena€?s Figure Skating
01:18:07.349 : en:Mena€?s Slalom





1 个附件 售价 大小 下载 时间

People.Hopes.Medals.1960.GERMAN.1080p.BluRay.x264.DTS-FGT.torrent 0 金币 42.82K 343 次 1月前

#1楼
发帖时间:2019-07-31 16:57:45   |   回复数:3
blue23
隐世仙人♂
感谢楼主分享
1月前 #2楼
liyouchai
隐世仙人♂
谢谢楼主分享资源
1月前 #3楼
911degrees
隐世仙人♂
非常感谢,谢谢分享
1月前 #4楼
游客组