conanlcg
超级版主

[2016] [日本] [其他] [BD-1080P] 牙狼〈GARO〉-DIVINE FLAME- Garo.Divine.Flame.2016.JAPANESE.1080p.BluRay.x264.DTS-FGT

-->

帖子完整标题:牙狼〈GARO〉-DIVINE FLAME- Garo.Divine.Flame.2016.JAPANESE.1080p.BluRay.x264.DTS-FGT 7.12GB




◎译  名 
◎片  名 牙狼〈GARO〉-DIVINE FLAME-
◎年  代 2016
◎产  地 日本
◎类  别 动画
◎语  言 日语
◎上映日期 2016-05-21(日本)
◎IMDb评分 6.6/10 from 70 users
◎IMDb链接 http://www.imdb.com/title/tt5271582
◎豆瓣评分 7.5/10 from 122 users
◎豆瓣链接 https://movie.douban.com/subject/26672537/
◎片  长 78分钟
◎导  演 林祐一郎
◎编  剧 小林靖子
◎主  演 浪川大輔
      野村勝人
      朴ろ美
      堀内賢雄


◎标  签 日本 | 剧场版 | 动画 | 日本动画 | 2016 | 动作 | 电影 | 动漫

◎简  介

  国王側近メンドーサの策略によって、魔女狩りが行われるヴァリアンテ国。人々を守ってきたはずの魔戒騎士と魔戒法師が次々と捕まり、処刑されていく。そんな中、アンナ?ルイスという女性の魔戒法師が火刑に処されながら子供を産み落す。そこへ夫にして魔戒騎士ゾロの称号を持つヘルマン?ルイスが現れ、その子を連れてこつぜんと姿を消してしまう。レオンと名付けられた子供は、黄金騎士の称号を受け継ぐ宿命を背負っており……。

Video
ID : 1
Format : AVC
Format/Info : Advanced Video Codec
Format profile : [email protected]
Format settings : CABAC / 4 Ref Frames
Format settings, CABAC : Yes
Format settings, Reference frames : 4 frames
Codec ID : V_MPEG4/ISO/AVC
Duration : 1 h 18 min
Bit rate : 11.5 Mb/s
Width : 1 920 pixels
Height : 812 pixels
Display aspect ratio : 2.35:1
Frame rate mode : Constant
Frame rate : 23.976 (24000/1001) FPS
Color space : YUV
Chroma subsampling : 4:2:0
Bit depth : 8 bits
Scan type : Progressive
Bits/(Pixel*Frame) : 0.308
Stream size : 6.29 GiB (88%)
Title : Garo.Divine.Flame.2016.JAPANESE.1080p.BluRay.x264.DTS-FGT
Writing library : x264 core 148 r2795M aaa9aa8
Encoding settings : cabac=1 / ref=4 / deblock=1:1:1 / analyse=0x3:0x113 / me=umh / subme=8 / psy=1 / psy_rd=0.50:0.00 / mixed_ref=1 / me_range=32 / chroma_me=1 / trellis=2 / 8x8dct=1 / cqm=0 / deadzone=21,11 / fast_pskip=1 / chroma_qp_offset=-2 / threads=25 / lookahead_threads=3 / sliced_threads=0 / nr=0 / decimate=1 / interlaced=0 / bluray_compat=0 / constrained_intra=0 / bframes=3 / b_pyramid=2 / b_adapt=1 / b_bias=0 / direct=3 / weightb=1 / open_gop=0 / weightp=2 / keyint=240 / keyint_min=24 / scenecut=40 / intra_refresh=0 / rc_lookahead=50 / rc=2pass / mbtree=1 / bitrate=11500 / ratetol=1.0 / qcomp=0.60 / qpmin=0 / qpmax=69 / qpstep=4 / cplxblur=20.0 / qblur=0.5 / vbv_maxrate=31250 / vbv_bufsize=31250 / nal_hrd=none / filler=0 / ip_ratio=1.40 / aq=3:0.60
Language : Japanese
Default : Yes
Forced : No

Audio
ID : 2
Format : DTS
Format/Info : Digital Theater Systems
Codec ID : A_DTS
Duration : 1 h 18 min
Bit rate mode : Constant
Bit rate : 1 509 kb/s
Channel(s) : 6 channels
Channel layout : C L R Ls Rs LFE
Sampling rate : 48.0 kHz
Frame rate : 93.750 FPS (512 SPF)
Bit depth : 16 bits
Compression mode : Lossy
Stream size : 845 MiB (12%)
Title : Garo.Divine.Flame.2016.JAPANESE.1080p.BluRay.x264.DTS-FGT
Language : Japanese
Default : Yes
Forced : No

Text
ID : 3
Format : UTF-8
Codec ID : S_TEXT/UTF8
Codec ID/Info : UTF-8 Plain Text
Duration : 1 h 16 min
Bit rate : 34 b/s
Count of elements : 668
Stream size : 19.5 KiB (0%)
Language : English
Default : Yes
Forced : No

Menu
00:00:00.000 : en:Chapter 01
00:05:59.859 : en:Chapter 02
00:14:35.333 : en:Chapter 03
00:19:56.487 : en:Chapter 04
00:23:42.129 : en:Chapter 05
00:31:22.130 : en:Chapter 06
00:40:01.441 : en:Chapter 07
00:44:14.902 : en:Chapter 08
00:47:38.481 : en:Chapter 09
00:52:40.657 : en:Chapter 10
01:03:45.739 : en:Chapter 11
01:15:09.255 : en:Chapter 12





1 个附件 售价 大小 下载 时间

Garo.Divine.Flame.2016.JAPANESE.1080p.BluRay.x264.DTS-FGT.torrent 0 金币 36.14K 1239 次 1月前

#1楼
发帖时间:2019-07-31 17:01:44   |   回复数:5
blue23
隐世仙人♂
感谢楼主分享
1月前 #2楼
liyouchai
隐世仙人♂
谢谢楼主分享资源
1月前 #3楼
911degrees
隐世仙人♂
非常感谢,谢谢分享
1月前 #4楼
tanchoohoon
武林盟主
感谢楼主的无私分享
1月前 #5楼
kola13
一派掌门
感谢分享
1月前 #6楼
游客组