conanlcg
超级版主

[2017] [其他] [其他] [BD-720P] 井里的人 Man.in.the.Well.2016.SUBBED.720p.BluRay.x264-BiPOLAR 555.17MB

-->

帖子完整标题:井里的人 Man.in.the.Well.2016.SUBBED.720p.BluRay.x264-BiPOLAR 555.17MB




◎译  名 Man In The Well
◎片  名 井里的人
◎年  代 2017
◎产  地 中国大陆
◎类  别 短片
◎语  言 汉语普通话
◎上映日期 2017(FIRST训练营) / 2018-08-05(洛迦诺电影节)
◎IMDb评分 5.7/10 from 56 users
◎IMDb链接 http://www.imdb.com/title/tt8842950
◎豆瓣评分 5.9/10 from 1214 users
◎豆瓣链接 https://movie.douban.com/subject/30273049/
◎片  长 16分钟
◎导  演 胡波 Hu Bo
◎编  剧 胡波 Hu Bo
◎主  演 张小千
      翟一一
      高铁光


◎标  签 短片 | 胡波 | 中国 | 中国大陆 | 黑白 | 2016 | 大陆 | 人性

◎简  介

  本片为《大象席地而坐》导演胡波在first训练营时拍摄的一部短片。入围第71届洛迦诺国际电影节Sign Of Life竞赛单元。

Video
ID : 1
Format : AVC
Format/Info : Advanced Video Codec
Format profile : [email protected]
Format settings : CABAC / 5 Ref Frames
Format settings, CABAC : Yes
Format settings, Reference frames : 5 frames
Codec ID : V_MPEG4/ISO/AVC
Duration : 16 min 17 s
Bit rate : 4 480 kb/s
Width : 944 pixels
Height : 720 pixels
Display aspect ratio : 4:3
Frame rate mode : Constant
Frame rate : 24.000 FPS
Color space : YUV
Chroma subsampling : 4:2:0
Bit depth : 8 bits
Scan type : Progressive
Bits/(Pixel*Frame) : 0.275
Stream size : 522 MiB (94%)
Writing library : x264 core 157 r2969 d4099dd
Encoding settings : cabac=1 / ref=5 / deblock=1:-3:-3 / analyse=0x3:0x133 / me=umh / subme=9 / psy=1 / psy_rd=1.00:0.00 / mixed_ref=1 / me_range=16 / chroma_me=1 / trellis=2 / 8x8dct=1 / cqm=0 / deadzone=21,11 / fast_pskip=0 / chroma_qp_offset=-2 / threads=18 / lookahead_threads=1 / sliced_threads=0 / nr=0 / decimate=1 / interlaced=0 / bluray_compat=0 / constrained_intra=0 / bframes=3 / b_pyramid=2 / b_adapt=1 / b_bias=0 / direct=3 / weightb=1 / open_gop=0 / weightp=2 / keyint=240 / keyint_min=24 / scenecut=40 / intra_refresh=0 / rc_lookahead=50 / rc=2pass / mbtree=1 / bitrate=4480 / ratetol=1.0 / qcomp=0.60 / qpmin=0 / qpmax=69 / qpstep=4 / cplxblur=20.0 / qblur=0.5 / ip_ratio=1.40 / aq=1:1.00
Language : English
Default : Yes
Forced : No

Audio
ID : 2
Format : FLAC
Format/Info : Free Lossless Audio Codec
Codec ID : A_FLAC
Duration : 16 min 17 s
Bit rate mode : Variable
Bit rate : 285 kb/s
Channel(s) : 2 channels
Channel layout : L R
Sampling rate : 48.0 kHz
Frame rate : 11.719 FPS (4096 SPF)
Bit depth : 16 bits
Compression mode : Lossless
Stream size : 33.2 MiB (6%)
Writing library : libFLAC 1.2.1 (UTC 2007-09-17)
Language : Chinese
Default : Yes
Forced : No





1 个附件 售价 大小 下载 时间

Man.in.the.Well.2016.SUBBED.720p.BluRay.x264-BiPOLAR.torrent 0 金币 11.51K 476 次 1月前

#1楼
发帖时间:2019-08-05 10:42:19   |   回复数:3
blue23
隐世仙人♂
感谢楼主分享
1月前 #2楼
911degrees
隐世仙人♂
非常感谢,谢谢分享
1月前 #3楼
liyouchai
隐世仙人♂
谢谢楼主分享资源
1月前 #4楼
游客组