conanlcg
超级版主

[2019] [欧美] [其他] [WEB-1080P] 你的生命之轮 Round.Of.Your.Life.2019.1080p.WEB-DL.DD5.1.H264-FGT 3.20GB

-->

帖子完整标题:你的生命之轮 Round.Of.Your.Life.2019.1080p.WEB-DL.DD5.1.H264-FGT 3.20GB




◎译  名 你的生命之轮
◎片  名 Round of Your Life
◎年  代 2019
◎产  地 美国
◎类  别 家庭 / 运动
◎语  言 英语
◎上映日期 2019-06-21(美国)
◎IMDb评分 5.7/10 from 20 users
◎IMDb链接 http://www.imdb.com/title/tt5190578
◎豆瓣评分 0/10 from 0 users
◎豆瓣链接 https://movie.douban.com/subject/34438699/
◎片  长 91分钟
◎导  演 Dylan Thomas Ellis
◎编  剧 Tim Ogletree
◎主  演 亚历山德里娅·德伯里 Alexandria Deberry
      理查德·琼斯 Richard T. Jones
      凯蒂·勒克莱齐 Katie Leclerc
      科尔·艾伦 Cole Allen
      凯瑟琳·威利斯 Katherine Willis
      波·阿诺德 Boo Arnold
      布莱尔·杰克逊 Blair Jackson
      Tyler Jade Nixon
      Jasmine Williams
      Tim Ogletree
      Claire Tablizo
      Elizabeth Gribbon McCullough
      Tyler Beede
      Danielle Garcia
      Carlton Caudle
      Kevin Sloan
      Caleb Crusco


◎简  介

  Fifteen year-old Taylor Collins is a golf legacy. The son of a PGA veteran, the younger brother of a PGA rookie, he has all the talent in the world-but wants nothing to do with golf or the pressure of being the next in line. After Taylor purposely blows his tryout for the school team, his disappointed father takes a drive that ends in a texting-while-driving accident and lands him in a coma. Taylor blames himself and, with the guidance of his brother and the prayer support from his mother Jenny and newfound crush Bailey, makes it his mission to get back on the team and become the first freshman in state history to lead his team to a state championship. Faith, hope, and love bring Taylor and his family closer than ever and he learns that the greatest way to honor his father and his God is to embrace the gifts and talents he was given.

Video
ID : 1
Format : AVC
Format/Info : Advanced Video Codec
Format profile : [email protected]
Format settings : CABAC / 5 Ref Frames
Format settings, CABAC : Yes
Format settings, Reference frames : 5 frames
Codec ID : V_MPEG4/ISO/AVC
Duration : 1 h 33 min
Bit rate : 4 522 kb/s
Width : 1 908 pixels
Height : 804 pixels
Display aspect ratio : 2.40:1
Frame rate mode : Constant
Frame rate : 23.976 (23976/1000) FPS
Color space : YUV
Chroma subsampling : 4:2:0
Bit depth : 8 bits
Scan type : Progressive
Bits/(Pixel*Frame) : 0.123
Stream size : 2.95 GiB (92%)
Title : Round.Of.Your.Life.2019.1080p.WEB-DL.DD5.1.H264-FGT
Language : English
Default : Yes
Forced : No
Color range : Limited
Color primaries : BT.709
Transfer characteristics : BT.709
Matrix coefficients : BT.709

Audio
ID : 2
Format : AC-3
Format/Info : Audio Coding 3
Commercial name : Dolby Digital
Codec ID : A_AC3
Duration : 1 h 33 min
Bit rate mode : Constant
Bit rate : 384 kb/s
Channel(s) : 6 channels
Channel layout : L R C LFE Ls Rs
Sampling rate : 48.0 kHz
Frame rate : 31.250 FPS (1536 SPF)
Bit depth : 16 bits
Compression mode : Lossy
Stream size : 257 MiB (8%)
Title : Round.Of.Your.Life.2019.1080p.WEB-DL.DD5.1.H264-FGT
Language : English
Service kind : Complete Main
Default : Yes
Forced : No

Menu
00:00:00.000 : en:Chapter 01
00:09:00.165 : en:Chapter 02
00:17:02.730 : en:Chapter 03
00:25:37.077 : en:Chapter 04
00:32:58.059 : en:Chapter 05
00:42:03.770 : en:Chapter 06
00:50:33.404 : en:Chapter 07
00:59:26.978 : en:Chapter 08
01:08:04.202 : en:Chapter 09
01:16:12.564 : en:Chapter 10
01:26:44.195 : en:Chapter 11
01:30:40.889 : en:Chapter 12





1 个附件 售价 大小 下载 时间

Round.Of.Your.Life.2019.1080p.WEB-DL.DD5.1.H264-FGT.torrent 0 金币 32.55K 322 次 1月前

#1楼
发帖时间:2019-08-05 19:17:23   |   回复数:2
liyouchai
隐世仙人♂
谢谢楼主分享资源
1月前 #2楼
911degrees
隐世仙人♂
非常感谢,谢谢分享
1月前 #3楼
游客组