conanlcg
超级版主

[更 早] [其他] [其他] [BD-720P] 小丑生命中的一天 24.Hours.in.the.Life.of.a.Clown.1946.720p.BluRay.x264-BiPOLAR 555.17MB

-->

帖子完整标题:小丑生命中的一天 24.Hours.in.the.Life.of.a.Clown.1946.720p.BluRay.x264-BiPOLAR 555.17MB




◎译  名 小丑生命中的一天 / 24 Heures De La Vie D'un Clown
◎片  名 Vingt-quatre heures de la vie d'un clown
◎年  代 1946
◎产  地 法国
◎类  别 短片
◎语  言 法语
◎上映日期 1946
◎IMDb评分 6.5/10 from 472 users
◎IMDb链接 http://www.imdb.com/title/tt0038222
◎豆瓣评分 6.9/10 from 186 users
◎豆瓣链接 https://movie.douban.com/subject/1908913/
◎片  长 18 分钟(德国)
◎导  演 让-皮埃尔·梅尔维尔 Jean-Pierre Melville
◎编  剧 让-皮埃尔·梅尔维尔 Jean-Pierre Melville
◎主  演 Beby
      Ma?ss


◎标  签 短片 | 法国 | 梅尔维尔 | 让-皮埃尔·梅尔维尔 | 1940s | 纪录片 | Jean-Pierre_Melville | JeanPierreMelville

◎简  介

  这部梅尔维尔早期影片跟罗伯特·布列松的惊人相似,两个导演在职业生涯开的开端,都是用法国著名的小丑“宝贝 Béby”做主角拍摄第一部短片。梅尔维尔描绘了一个老年小丑的肖像,纪录他一天的日常生活。影片主要拍摄了他在美达罗Medrano马戏团的演出,在家,在巴黎蒙马特街道,跟他的忠实的伙伴、老朋友“麦子 Ma?ss”一起。这部短片已经展现出很多他的个人偏好,如城市的阴影、夜生活、雨衣和高雅的男士礼帽等。

Video
ID : 1
Format : AVC
Format/Info : Advanced Video Codec
Format profile : [email protected]
Format settings : CABAC / 5 Ref Frames
Format settings, CABAC : Yes
Format settings, Reference frames : 5 frames
Codec ID : V_MPEG4/ISO/AVC
Duration : 18 min 26 s
Bit rate : 4 017 kb/s
Width : 976 pixels
Height : 720 pixels
Display aspect ratio : 4:3
Frame rate mode : Constant
Frame rate : 23.976 (24000/1001) FPS
Color space : YUV
Chroma subsampling : 4:2:0
Bit depth : 8 bits
Scan type : Progressive
Bits/(Pixel*Frame) : 0.238
Stream size : 530 MiB (95%)
Writing library : x264 core 157 r2969 d4099dd
Encoding settings : cabac=1 / ref=5 / deblock=1:-3:-3 / analyse=0x3:0x133 / me=umh / subme=9 / psy=1 / psy_rd=1.00:0.00 / mixed_ref=1 / me_range=16 / chroma_me=1 / trellis=2 / 8x8dct=1 / cqm=0 / deadzone=21,11 / fast_pskip=0 / chroma_qp_offset=-2 / threads=18 / lookahead_threads=1 / sliced_threads=0 / nr=0 / decimate=1 / interlaced=0 / bluray_compat=0 / constrained_intra=0 / bframes=3 / b_pyramid=2 / b_adapt=1 / b_bias=0 / direct=3 / weightb=1 / open_gop=0 / weightp=2 / keyint=240 / keyint_min=24 / scenecut=40 / intra_refresh=0 / rc_lookahead=50 / rc=2pass / mbtree=1 / bitrate=4017 / ratetol=1.0 / qcomp=0.60 / qpmin=0 / qpmax=69 / qpstep=4 / cplxblur=20.0 / qblur=0.5 / ip_ratio=1.40 / aq=1:1.00
Language : English
Default : Yes
Forced : No

Audio
ID : 2
Format : AC-3
Format/Info : Audio Coding 3
Commercial name : Dolby Digital
Codec ID : A_AC3
Duration : 18 min 26 s
Bit rate mode : Constant
Bit rate : 192 kb/s
Channel(s) : 1 channel
Channel layout : C
Sampling rate : 48.0 kHz
Frame rate : 31.250 FPS (1536 SPF)
Bit depth : 16 bits
Compression mode : Lossy
Stream size : 25.3 MiB (5%)
Language : French
Service kind : Complete Main
Default : Yes
Forced : No

Text
ID : 3
Format : UTF-8
Codec ID : S_TEXT/UTF8
Codec ID/Info : UTF-8 Plain Text
Duration : 18 min 1 s
Bit rate : 82 b/s
Count of elements : 277
Stream size : 10.9 KiB (0%)
Title : English
Language : English
Default : Yes
Forced : Yes





1 个附件 售价 大小 下载 时间

24.Hours.in.the.Life.of.a.Clown.1946.720p.BluRay.x264-BiPOLAR.torrent 0 金币 11.54K 224 次 2月前

#1楼
发帖时间:2019-08-05 20:37:27   |   回复数:2
liyouchai
隐世仙人♂
谢谢楼主分享资源
2月前 #2楼
911degrees
隐世仙人♂
非常感谢,谢谢分享
2月前 #3楼
游客组