conanlcg
超级版主

[2011] [台湾] [剧情] [BD-720P] 那些年我们一起追的女孩 You.Are.the.Apple.of.My.Eye.2011.iNTERNAL.720p.BluRay.x264-REGRET 5.

-->

帖子完整标题:那些年我们一起追的女孩 You.Are.the.Apple.of.My.Eye.2011.iNTERNAL.720p.BluRay.x264-REGRET 5.48GB




◎译  名 那些年,我们一起追的女孩 / You Are the Apple of My Eye
◎片  名 那些年,我們一起追的女孩
◎年  代 2011
◎产  地 台湾
◎类  别 剧情 / 喜剧 / 爱情
◎语  言 汉语普通话
◎上映日期 2011-08-19(台湾) / 2012-01-06(中国大陆)
◎IMDb评分 7.6/10 from 8422 users
◎IMDb链接 http://www.imdb.com/title/tt2036416
◎豆瓣评分 8.1/10 from 645775 users
◎豆瓣链接 https://movie.douban.com/subject/4920528/
◎片  长 110分钟
◎导  演 九把刀 Giddens
◎编  剧 九把刀 Giddens
◎主  演 柯震东 Ko Chen Tung
      陈妍希 Michelle Chen
      敖犬 Owodog
      郝邵文 Shaowen Hao
      蔡昌宪 Chang-Hsien Tsai
      鄢胜宇 Sheng-yu Yen
      弯弯 Wan Wan
      邱彦翔 Yanxiang Qiu
      王彩桦 Lotus Wang
      柯义浤 Yihong Ke
      黄逸祥 Yi-Siang Huang
      李凤新 Feng Hsin Li
      黄柏钧 Denny Huang
      赖雅妍 Megan Lai
      高丽红 Li-Hung Kao
      李维维 Vivi Lee
      严艺文 Yi-Wen Yen
      蔡武雄 Wu-Hsiung Tsai


◎标  签 青春 | 台湾 | 爱情 | 校园 | 成长 | 文艺 | 感动 | 2011

◎简  介

  青春是一场大雨。即使感冒了,还盼望回头再淋它一次。人生就是不停的战斗,在还没有获得女神青睐时,左手永远都只是辅助!!!
柯景腾(柯震东 饰)和他的一群好友,爱耍帅却老是情场失意的老曹(敖犬 饰),停止不了勃起所以叫勃起的勃起(鄢胜宇 饰),想用搞笑致胜却总是失败的该边(蔡昌 宪 饰),胖界的夺爱高手阿和(赦绍文 饰),从国中到高中,一直是不离不弃的死党。他们都对班花沈佳宜(陈妍希 饰)有着一种纠结的感情。一方面,他们瞧不起这种只会用功读书的女生,另一方面他们又为她的美好气质倾倒。因为学习成绩较差,柯景腾被老师安排坐在沈佳宜前面。因为他的一次英雄救美,她开始用强制的方式帮他补习功课。此事令其他兄弟羡慕嫉妒恨,但是大家都未说破。毕业后,柯景腾和沈佳宜在各自大学保持恋人般的联系。直到他举办自由格斗赛,事情才出现了变化…… 这一连串下,原本按兵不动的好友也都纷纷加入女神争夺战!但是麻吉诚可贵,青春价更高,若为女神故,是否二者皆可抛哩?!
本片根据导演兼编剧九把刀在2007年的自传体小说改编。柯震东凭借本片获第48届金马奖最佳新演员。

◎获奖情况

  第48届台北金马影展(2011)
  金马奖 最佳女主角(提名) 陈妍希
  金马奖 最佳新导演(提名) 九把刀
  金马奖 最佳新演员 柯震东
  金马奖 最佳原创歌曲(提名)

  第31届香港电影金像奖(2012)
  最佳两岸华语电影

  第6届亚洲电影大奖(2012)
  我最喜爱的男女主角 我最喜爱的女主角(提名) 陈妍希
  最佳女主角(提名) 陈妍希
  最佳新演员(提名) 柯震东

  第11届中国长春电影节(2012)
  金鹿奖 最佳男主角(提名) 柯震东
  金鹿奖 最佳女主角(提名) 陈妍希

  第12届华语电影传媒大奖(2012)
  观众票选最受瞩目电影
  观众票选最受瞩目女演员(提名) 陈妍希
  观众票选最受瞩目表现 陈妍希
  最佳新导演 九把刀
  最佳新演员 柯震东

  第2届豆瓣电影鑫像奖(2012)
  鑫豆单元 最佳影片(华语)(提名)
  鑫豆单元 最佳导演(华语)(提名) 九把刀
  鑫豆单元 最佳男演员(华语)(提名) 柯震东
  鑫豆单元 最佳女演员(华语)(提名) 陈妍希



Video
ID : 1
Format : AVC
Format/Info : Advanced Video Codec
Format profile : [email protected]
Format settings : CABAC / 5 Ref Frames
Format settings, CABAC : Yes
Format settings, Reference frames : 5 frames
Codec ID : V_MPEG4/ISO/AVC
Duration : 1 h 49 min
Bit rate : 5 630 kb/s
Width : 1 280 pixels
Height : 544 pixels
Display aspect ratio : 2.35:1
Frame rate mode : Constant
Frame rate : 24.000 FPS
Color space : YUV
Chroma subsampling : 4:2:0
Bit depth : 8 bits
Scan type : Progressive
Bits/(Pixel*Frame) : 0.337
Stream size : 4.31 GiB (79%)
Writing library : x264 core 157 r2970 5493be8
Encoding settings : cabac=1 / ref=5 / deblock=1:-3:-3 / analyse=0x3:0x133 / me=umh / subme=9 / psy=1 / psy_rd=1.00:0.00 / mixed_ref=1 / me_range=16 / chroma_me=1 / trellis=2 / 8x8dct=1 / cqm=0 / deadzone=21,11 / fast_pskip=0 / chroma_qp_offset=-2 / threads=17 / lookahead_threads=1 / sliced_threads=0 / nr=0 / decimate=1 / interlaced=0 / bluray_compat=0 / constrained_intra=0 / bframes=3 / b_pyramid=2 / b_adapt=1 / b_bias=0 / direct=3 / weightb=1 / open_gop=0 / weightp=2 / keyint=240 / keyint_min=24 / scenecut=40 / intra_refresh=0 / rc_lookahead=50 / rc=2pass / mbtree=1 / bitrate=5630 / ratetol=1.0 / qcomp=0.60 / qpmin=0 / qpmax=69 / qpstep=4 / cplxblur=20.0 / qblur=0.5 / ip_ratio=1.40 / aq=1:1.00
Language : English
Default : Yes
Forced : No

Audio
ID : 2
Format : DTS
Format/Info : Digital Theater Systems
Codec ID : A_DTS
Duration : 1 h 49 min
Bit rate mode : Constant
Bit rate : 1 509 kb/s
Channel(s) : 6 channels
Channel layout : C L R Ls Rs LFE
Sampling rate : 48.0 kHz
Frame rate : 93.750 FPS (512 SPF)
Bit depth : 24 bits
Compression mode : Lossy
Stream size : 1.15 GiB (21%)
Language : Chinese
Default : Yes
Forced : No

Text
ID : 3
Format : UTF-8
Codec ID : S_TEXT/UTF8
Codec ID/Info : UTF-8 Plain Text
Duration : 1 h 47 min
Bit rate : 52 b/s
Count of elements : 1394
Stream size : 41.5 KiB (0%)
Title : English
Language : English
Default : Yes
Forced : Yes

Menu
00:00:00.000 : en:00:00:00.000
00:14:19.500 : en:00:14:19.500
00:24:28.958 : en:00:24:28.958
00:38:39.083 : en:00:38:39.083
00:50:40.000 : en:00:50:40.000
01:04:35.458 : en:01:04:35.458
01:17:29.875 : en:01:17:29.875
01:34:45.458 : en:01:34:45.458





1 个附件 售价 大小 下载 时间

You.Are.the.Apple.of.My.Eye.2011.iNTERNAL.720p.BluRay.x264-REGRET.torrent 0 金币 28.30K 805 次 1月前

#1楼
发帖时间:2019-08-05 20:51:52   |   回复数:3
liyouchai
隐世仙人♂
谢谢楼主分享资源
1月前 #2楼
jokingcheung
一代宗师
谢谢分享
1月前 #3楼
911degrees
隐世仙人♂
非常感谢,谢谢分享
1月前 #4楼
游客组