conanlcg
超级版主

[更 早] [其他] [其他] [BD-1080P] 雅克·德米的世界 The.World.of.Jacques.Demy.1995.1080p.BluRay.x264-BiPOLAR 6.56GB

-->

帖子完整标题:雅克·德米的世界 The.World.of.Jacques.Demy.1995.1080p.BluRay.x264-BiPOLAR 6.56GB




◎译  名 雅克·德米的世界 / The World of Jacques Demy / 丹美的世界 / 德米吾爱
◎片  名 L'Univers de Jacques Demy
◎年  代 1995
◎产  地 法国 / 比利時 / 西班牙
◎类  别 纪录片
◎语  言 法语 / 英语
◎上映日期 1995-09-22
◎IMDb评分 7.5/10 from 312 users
◎IMDb链接 http://www.imdb.com/title/tt0114794
◎豆瓣评分 8.2/10 from 251 users
◎豆瓣链接 https://movie.douban.com/subject/1401902/
◎片  长 90 分钟
◎导  演 Agnès Varda
◎编  剧 Agnès Varda
◎主  演 阿努克·艾梅 Anouk Aimée
      理查德·贝里 Richard Berry
      尼诺·卡斯泰尔诺沃 Nino Castelnuovo
      达尼埃尔·达里约 Danielle Darrieux
      凯瑟琳·德纳芙 Catherine Deneuve
      弗兰西丝·法比安 Fran?oise Fabian
      哈里森·福特 Harrison Ford
      克洛德·曼 Claude Mann
      马克·米歇尔 Marc Michel
      让娜·莫罗 Jeanne Moreau
      雅克·贝汉 Jacques Perrin
      米歇尔·皮科利 Michel Piccoli
      多米尼克·桑达 Dominique Sanda
      安妮·维尔侬 Anne Vernon
      米歇尔·勒格朗 Michel Legrand
      杰拉尔德·艾尔斯 Gerald Ayres
      克洛德·贝里 Claude Berri
      玛格·博达尔 Mag Bodard
      马修·戴米 Mathieu Demy
      贝特朗·塔维涅 Bertrand Tavernier


◎标  签 纪录片 | 法国 | 阿涅斯·瓦尔达 | AgnèsVarda | 法国电影 | 瓦尔达 | Jacques_Demy | 1995

◎简  介

  《雅克·德米的世界》是阿涅斯·瓦尔达对丈夫雅克·德米的爱恋与追思,也是一堂精彩的法国电影史。阿涅斯·瓦尔达一共拍摄了三部以雅克·德米为主题的电影。1990年雅克·德米即将因病逝世时,瓦尔达在他生命的模锻重新拍摄并分享了他的童年——她来不及参与的回忆。德米逝世之后,瓦尔达则以纪录片的形式完整地讲述德米的电影世界。影片包括资料式的访谈影像、片场的纪实资料、曾经合作的电影工作者、演员以及影迷的追忆片段等,还有一些珍贵的史料片段,比如大门乐队的主唱吉姆·莫里森探班《驴皮公主》拍片现场的经典画面。

Video
ID : 1
Format : AVC
Format/Info : Advanced Video Codec
Format profile : [email protected]
Format settings : CABAC / 4 Ref Frames
Format settings, CABAC : Yes
Format settings, Reference frames : 4 frames
Codec ID : V_MPEG4/ISO/AVC
Duration : 1 h 31 min
Bit rate : 10.1 Mb/s
Width : 1 808 pixels
Height : 1 080 pixels
Display aspect ratio : 5:3
Frame rate mode : Constant
Frame rate : 23.976 (24000/1001) FPS
Color space : YUV
Chroma subsampling : 4:2:0
Bit depth : 8 bits
Scan type : Progressive
Bits/(Pixel*Frame) : 0.215
Stream size : 6.44 GiB (98%)
Writing library : x264 core 157 r2969 d4099dd
Encoding settings : cabac=1 / ref=4 / deblock=1:-3:-3 / analyse=0x3:0x133 / me=umh / subme=9 / psy=1 / psy_rd=1.00:0.00 / mixed_ref=1 / me_range=16 / chroma_me=1 / trellis=2 / 8x8dct=1 / cqm=0 / deadzone=21,11 / fast_pskip=0 / chroma_qp_offset=-2 / threads=18 / lookahead_threads=1 / sliced_threads=0 / nr=0 / decimate=1 / interlaced=0 / bluray_compat=0 / constrained_intra=0 / bframes=3 / b_pyramid=2 / b_adapt=1 / b_bias=0 / direct=3 / weightb=1 / open_gop=0 / weightp=2 / keyint=240 / keyint_min=24 / scenecut=40 / intra_refresh=0 / rc_lookahead=50 / rc=2pass / mbtree=1 / bitrate=10050 / ratetol=1.0 / qcomp=0.60 / qpmin=0 / qpmax=69 / qpstep=4 / cplxblur=20.0 / qblur=0.5 / ip_ratio=1.40 / aq=1:1.00
Language : English
Default : Yes
Forced : No

Audio
ID : 2
Format : AC-3
Format/Info : Audio Coding 3
Commercial name : Dolby Digital
Codec ID : A_AC3
Duration : 1 h 31 min
Bit rate mode : Constant
Bit rate : 192 kb/s
Channel(s) : 1 channel
Channel layout : C
Sampling rate : 48.0 kHz
Frame rate : 31.250 FPS (1536 SPF)
Bit depth : 16 bits
Compression mode : Lossy
Stream size : 126 MiB (2%)
Language : French
Service kind : Complete Main
Default : Yes
Forced : No

Text
ID : 3
Format : UTF-8
Codec ID : S_TEXT/UTF8
Codec ID/Info : UTF-8 Plain Text
Duration : 1 h 28 min
Bit rate : 80 b/s
Count of elements : 1293
Stream size : 52.3 KiB (0%)
Title : English
Language : English
Default : Yes
Forced : Yes

Menu
00:00:00.000 : en:00:00:00.000
00:08:51.406 : en:00:08:51.406
00:15:19.961 : en:00:15:19.961
00:24:00.397 : en:00:24:00.397
00:26:55.948 : en:00:26:55.948
00:30:46.595 : en:00:30:46.595
00:42:11.195 : en:00:42:11.195
00:49:06.986 : en:00:49:06.986
00:56:01.650 : en:00:56:01.650
01:02:54.896 : en:01:02:54.896
01:08:29.272 : en:01:08:29.272
01:11:07.388 : en:01:11:07.388
01:15:21.308 : en:01:15:21.308
01:19:44.697 : en:01:19:44.697
01:21:03.650 : en:01:21:03.650
01:24:22.349 : en:01:24:22.349





1 个附件 售价 大小 下载 时间

The.World.of.Jacques.Demy.1995.1080p.BluRay.x264-BiPOLAR.torrent 0 金币 33.47K 301 次 1月前

#1楼
发帖时间:2019-08-06 10:17:44   |   回复数:2
liyouchai
隐世仙人♂
谢谢楼主分享资源
1月前 #2楼
911degrees
隐世仙人♂
非常感谢,谢谢分享
1月前 #3楼
游客组