conanlcg
超级版主

[2018] [其他] [其他] [BD-1080P] 伯格曼:人生中的那一年 Bergman.A.Year.in.a.Life.2018.1080p.BluRay.x264-BiPOLAR 8.75GB

-->

帖子完整标题:伯格曼:人生中的那一年 Bergman.A.Year.in.a.Life.2018.1080p.BluRay.x264-BiPOLAR 8.75GB




◎译  名 伯格曼:人生中的那一年 / Bergman: A Year in a Life / 伯格曼:大师狂想(台)
◎片  名 Bergman — ett ?r, ett liv
◎年  代 2018
◎产  地 瑞典 / 挪威
◎类  别 纪录片
◎语  言 瑞典语 / 英语 / 德语
◎上映日期 2018-05-08(戛纳电影节)
◎IMDb评分 7.3/10 from 465 users
◎IMDb链接 http://www.imdb.com/title/tt6109168
◎豆瓣评分 7.8/10 from 211 users
◎豆瓣链接 https://movie.douban.com/subject/26772229/
◎片  长 116分钟
◎导  演 简·马格努森 Jane Magnusson
◎主  演 英格玛·伯格曼 Ingmar Bergman
      简·马格努森 Jane Magnusson
      丽芙·乌曼 Liv Ullmann
      莱娜·恩卓 Lena Endre
      Thorsten Flinck
      埃利奥特·古尔德 Elliott Gould
      芭芭拉·史翠珊 Barbra Streisand
      拉斯·冯·提尔 Lars von Trier


◎标  签 纪录片 | 英格玛·伯格曼 | 瑞典 | 伯格曼 | 2018 | 紀錄片 | 戛纳电影节 | Documentary

◎简  介

  .

◎获奖情况

  第31届欧洲电影奖(2018)
  最佳纪录片

  第66届圣塞巴斯蒂安国际电影节(2018)
  开放电影大奖(提名) 简·马格努森



Video
ID : 1
Format : AVC
Format/Info : Advanced Video Codec
Format profile : [email protected]
Format settings : CABAC / 4 Ref Frames
Format settings, CABAC : Yes
Format settings, Reference frames : 4 frames
Codec ID : V_MPEG4/ISO/AVC
Duration : 1 h 57 min
Bit rate : 9 189 kb/s
Width : 1 920 pixels
Height : 1 080 pixels
Display aspect ratio : 16:9
Frame rate mode : Constant
Frame rate : 25.000 FPS
Color space : YUV
Chroma subsampling : 4:2:0
Bit depth : 8 bits
Scan type : Progressive
Bits/(Pixel*Frame) : 0.177
Stream size : 7.51 GiB (86%)
Writing library : x264 core 157 r2969 d4099dd
Encoding settings : cabac=1 / ref=4 / deblock=1:-3:-3 / analyse=0x3:0x133 / me=umh / subme=9 / psy=1 / psy_rd=1.00:0.00 / mixed_ref=1 / me_range=16 / chroma_me=1 / trellis=2 / 8x8dct=1 / cqm=0 / deadzone=21,11 / fast_pskip=0 / chroma_qp_offset=-2 / threads=18 / lookahead_threads=1 / sliced_threads=0 / nr=0 / decimate=1 / interlaced=0 / bluray_compat=0 / constrained_intra=0 / bframes=3 / b_pyramid=2 / b_adapt=1 / b_bias=0 / direct=3 / weightb=1 / open_gop=0 / weightp=2 / keyint=250 / keyint_min=25 / scenecut=40 / intra_refresh=0 / rc_lookahead=50 / rc=2pass / mbtree=1 / bitrate=9189 / ratetol=1.0 / qcomp=0.60 / qpmin=0 / qpmax=69 / qpstep=4 / cplxblur=20.0 / qblur=0.5 / ip_ratio=1.40 / aq=1:1.00
Language : English
Default : Yes
Forced : No

Audio
ID : 2
Format : DTS
Format/Info : Digital Theater Systems
Codec ID : A_DTS
Duration : 1 h 57 min
Bit rate mode : Constant
Bit rate : 1 509 kb/s
Channel(s) : 6 channels
Channel layout : C L R Ls Rs LFE
Sampling rate : 48.0 kHz
Frame rate : 93.750 FPS (512 SPF)
Bit depth : 24 bits
Compression mode : Lossy
Stream size : 1.23 GiB (14%)
Language : Swedish
Default : Yes
Forced : No

Text #1
ID : 3
Format : UTF-8
Codec ID : S_TEXT/UTF8
Codec ID/Info : UTF-8 Plain Text
Duration : 1 h 55 min
Bit rate : 46 b/s
Count of elements : 856
Stream size : 39.2 KiB (0%)
Title : English forced
Language : English
Default : Yes
Forced : Yes

Text #2
ID : 4
Format : UTF-8
Codec ID : S_TEXT/UTF8
Codec ID/Info : UTF-8 Plain Text
Duration : 1 h 55 min
Bit rate : 74 b/s
Count of elements : 1397
Stream size : 63.4 KiB (0%)
Title : English
Language : English
Default : No
Forced : No

Text #3
ID : 5
Format : UTF-8
Codec ID : S_TEXT/UTF8
Codec ID/Info : UTF-8 Plain Text
Duration : 1 h 56 min
Bit rate : 82 b/s
Count of elements : 1458
Stream size : 70.5 KiB (0%)
Title : English SDH
Language : English
Default : No
Forced : No

Menu
00:00:00.000 : en:00:00:00.000
00:10:58.920 : en:00:10:58.920
00:16:05.000 : en:00:16:05.000
00:26:31.000 : en:00:26:31.000
00:34:22.200 : en:00:34:22.200
00:41:58.560 : en:00:41:58.560
00:53:18.360 : en:00:53:18.360
01:03:49.000 : en:01:03:49.000
01:12:49.440 : en:01:12:49.440
01:25:35.800 : en:01:25:35.800
01:33:50.000 : en:01:33:50.000
01:49:30.000 : en:01:49:30.000





1 个附件 售价 大小 下载 时间

Bergman.A.Year.in.a.Life.2018.1080p.BluRay.x264-BiPOLAR.torrent 0 金币 44.50K 462 次 1月前

#1楼
发帖时间:2019-08-06 10:25:50   |   回复数:2
liyouchai
隐世仙人♂
谢谢楼主分享资源
1月前 #2楼
911degrees
隐世仙人♂
非常感谢,谢谢分享
1月前 #3楼
游客组