conanlcg
超级版主

[2010] [韩国] [剧情] [BD-1080P] 孤胆特工 The.Man.From.Nowhere.2010.1080p.BluRay.x264-MiRACLE 9.83GB

-->

帖子完整标题:孤胆特工 The.Man.From.Nowhere.2010.1080p.BluRay.x264-MiRACLE 9.83GB


[img]https://img1.doubanio.com/view/photo/l_ratio_poster/public/p1187020899.jpg[img]

◎译  名 孤胆特工 / The Man From Nowhere / 叔叔 / 大叔(台) / 杀手代父(港) / 这个大叔不太冷(豆友译名)
◎片  名 ???
◎年  代 2010
◎产  地 韩国
◎类  别 剧情 / 动作 / 惊悚 / 犯罪
◎语  言 韩语
◎上映日期 2010-08-04(韩国) / 2011-09-16(中国大陆)
◎IMDb评分 7.8/10 from 55787 users
◎IMDb链接 http://www.imdb.com/title/tt1527788
◎豆瓣评分 8.1/10 from 140812 users
◎豆瓣链接 https://movie.douban.com/subject/4249355/
◎片  长 119分钟(韩国)
◎导  演 李政范 Jeong-beom Lee
◎编  剧 李政范 Jeong-beom Lee
◎主  演 元斌 Bin Won
      金赛纶 Sae Ron Kim
      坦纳永·王特拉库 Thanayong Wongtrakul
      金泰勋 Tae-hoon Kim
      金熙元 Hae-won Kim
      宋英昌 Young-chang Song
      李宗弼 Jong-pil Lee
      金成伍 Sung-o Kim
      金孝书 Hyo-seo Kim
      白秀莲 Su-ryun Baek
      郭度沅 Do-Won Kwak
      洪晓熙 Se-hee Hong


◎标  签 元彬 | 动作 | 韩国 | 韩国电影 | 犯罪 | 大叔 | 剧情 | 2010

◎简  介

  住在小女孩小米(金赛纶 饰)隔壁的当铺大叔(元斌 饰)除过生意之外和邻居们从不来往,颓废的造型以及沉默的性格让人们对于他的身份有诸多怀疑。天真的小米从不理会这些传言,时常造访这位神秘邻居竟然使他俩慢慢的成为朋友。小米的妈妈牵连到黑帮的毒品抢夺之中,最终使自己和小米陷入危险之中。目睹小米和妈妈被人绑架的当铺大叔为了救出小米和妈妈,开始和黑道展开斗争。此时,警方也在着手调查这起案件,当铺大叔元泰锡的真正身份慢慢浮出水面。被摘除所有值钱器官的小米妈妈的尸体在一辆汽车的后备箱里被发现,但是,和她一起失踪的小米却依然下落不明……
  《旅行者》中扮演“真希”的小罗莉金赛纶和换上颓废造型的“花样美男”元斌一起演绎的韩版《这个杀手不太冷》,成为2010年韩国最卖座的电影。

◎获奖情况

  第5届亚洲电影大奖(2011)
  最佳视觉效果(提名) Jung Hyun Park
Video
ID : 1
Format : AVC
Format/Info : Advanced Video Codec
Format profile : [email protected]
Format settings, CABAC : Yes
Format settings, ReFrames : 5 frames
Codec ID : V_MPEG4/ISO/AVC
Duration : 1h 59mn
Bit rate : 8 776 Kbps
Width : 1 920 pixels
Height : 816 pixels
Display aspect ratio : 2.35:1
Frame rate mode : Constant
Frame rate : 23.976 fps
Color space : YUV
Chroma subsampling : 4:2:0
Bit depth : 8 bits
Scan type : Progressive
Bits/(Pixel*Frame) : 0.234
Stream size : 7.12 GiB (72%)
Writing library : x264 core 114 r1913 5fd3dce
Encoding settings : cabac=1 / ref=5 / deblock=1:0:0 / analyse=0x3:0x133 / me=umh / subme=8 / psy=1 / psy_rd=1.00:0.00 / mixed_ref=1 / me_range=16 / chroma_me=1 / trellis=1 / 8x8dct=1 / cqm=0 / deadzone=21,11 / fast_pskip=0 / chroma_qp_offset=-2 / threads=12 / sliced_threads=0 / nr=0 / decimate=0 / interlaced=0 / constrained_intra=0 / bframes=3 / b_pyramid=2 / b_adapt=1 / b_bias=0 / direct=1 / weightb=1 / open_gop=1 / weightp=2 / keyint=250 / keyint_min=23 / scenecut=40 / intra_refresh=0 / rc_lookahead=40 / rc=2pass / mbtree=1 / bitrate=8776 / ratetol=1.0 / qcomp=0.60 / qpmin=0 / qpmax=51 / qpstep=4 / cplxblur=20.0 / qblur=0.5 / ip_ratio=1.40 / aq=1:1.00
Language : English
Default : Yes
Forced : No

Audio #1
ID : 2
Format : DTS
Format/Info : Digital Theater Systems
Mode : 16
Format settings, Endianness : Big
Codec ID : A_DTS
Duration : 1h 59mn
Bit rate mode : Constant
Bit rate : 1 509 Kbps
Channel(s) : 6 channels
Channel positions : Front: L C R, Side: L R, LFE
Sampling rate : 48.0 KHz
Frame rate : 93.750 fps (512 spf)
Bit depth : 16 bits
Compression mode : Lossy
Stream size : 1.26 GiB (13%)
Title : English Dubbed
Language : English
Default : No
Forced : No

Audio #2
ID : 3
Format : DTS
Format/Info : Digital Theater Systems
Mode : 16
Format settings, Endianness : Big
Codec ID : A_DTS
Duration : 1h 59mn
Bit rate mode : Constant
Bit rate : 1 509 Kbps
Channel(s) : 6 channels
Channel positions : Front: L C R, Side: L R, LFE
Sampling rate : 48.0 KHz
Frame rate : 93.750 fps (512 spf)
Bit depth : 16 bits
Compression mode : Lossy
Stream size : 1.26 GiB (13%)
Title : Korean DTS
Language : Korean
Default : Yes
Forced : No

Text
ID : 4
Format : UTF-8
Codec ID : S_TEXT/UTF8
Codec ID/Info : UTF-8 Plain Text
Title : English Subs
Language : English
Default : Yes
Forced : No





1 个附件 售价 大小 下载 时间

The.Man.From.Nowhere.2010.1080p.BluRay.x264-MiRACLE.torrent 0 金币 98.86K 2016 次 1月前

#1楼
发帖时间:2019-08-08 10:59:57   |   回复数:5
blue23
隐世仙人♂
感谢楼主分享
1月前 #2楼
911degrees
隐世仙人♂
非常感谢,谢谢分享
1月前 #3楼
jokingcheung
一代宗师
谢谢分享
1月前 #4楼
tanchoohoon
武林盟主
感谢楼主的无私分享
1月前 #5楼
liyouchai
隐世仙人♂
谢谢楼主分享资源
1月前 #6楼
游客组