conanlcg
超级版主

[2019] [欧美] [其他] [WEB-1080P] 大卫·鲍伊:前五年 David.Bowie.Finding.Fame.2019.1080p.AMZN.WEBRip.DDP2.0.x264-NTG 5.76GB

-->

帖子完整标题:大卫·鲍伊:前五年 David.Bowie.Finding.Fame.2019.1080p.AMZN.WEBRip.DDP2.0.x264-NTG 5.76GB


[img]https://img1.doubanio.com/view/photo/l_ratio_poster/public/p2547998929.jpg[img]

◎译  名 大卫·鲍伊:前五年
◎片  名 David Bowie: The First Five Years
◎年  代 2019
◎产  地 英国
◎类  别 纪录片 / 音乐
◎语  言 英语
◎上映日期 2019-02-09(英国)
◎IMDb评分 7.7/10 from 150 users
◎IMDb链接 http://www.imdb.com/title/tt9144476
◎豆瓣评分 0/10 from 0 users
◎豆瓣链接 https://movie.douban.com/subject/30458692/
◎片  长 90分钟
◎导  演 Francis Whately
◎主  演 大卫·鲍伊 David Bowie
      Carlos Alomar
      Kristina Amadeus


◎标  签 DavidBowie | BBC | 纪录片 | 摇滚 | 2019 | 英国 | 成长 | 2010s

◎简  介

  A look at the early years in the life of rock star, David Bowie.
Video
ID : 1
Format : AVC
Format/Info : Advanced Video Codec
Format profile : [email protected]
Format settings : CABAC / 4 Ref Frames
Format settings, CABAC : Yes
Format settings, Reference frames : 4 frames
Codec ID : V_MPEG4/ISO/AVC
Duration : 1 h 35 min
Bit rate mode : Constant
Bit rate : 8 445 kb/s
Nominal bit rate : 10 000 kb/s
Width : 1 920 pixels
Height : 1 080 pixels
Display aspect ratio : 16:9
Frame rate mode : Constant
Frame rate : 23.976 (24000/1001) FPS
Color space : YUV
Chroma subsampling : 4:2:0
Bit depth : 8 bits
Scan type : Progressive
Bits/(Pixel*Frame) : 0.170
Stream size : 5.61 GiB (97%)
Default : Yes
Forced : No
Color range : Limited
Color primaries : BT.709
Transfer characteristics : BT.709
Matrix coefficients : BT.709

Audio
ID : 2
Format : E-AC-3
Format/Info : Enhanced AC-3
Commercial name : Dolby Digital Plus
Codec ID : A_EAC3
Duration : 1 h 35 min
Bit rate mode : Constant
Bit rate : 224 kb/s
Channel(s) : 2 channels
Channel layout : L R
Sampling rate : 48.0 kHz
Frame rate : 31.250 FPS (1536 SPF)
Compression mode : Lossy
Stream size : 152 MiB (3%)
Language : English
Service kind : Complete Main
Default : Yes
Forced : No

Text #1
ID : 3
Format : UTF-8
Codec ID : S_TEXT/UTF8
Codec ID/Info : UTF-8 Plain Text
Duration : 1 h 33 min
Bit rate : 89 b/s
Count of elements : 1513
Stream size : 61.4 KiB (0%)
Language : English
Default : No
Forced : No

Text #2
ID : 4
Format : UTF-8
Codec ID : S_TEXT/UTF8
Codec ID/Info : UTF-8 Plain Text
Duration : 1 h 33 min
Bit rate : 96 b/s
Count of elements : 1604
Stream size : 66.7 KiB (0%)
Title : SDH
Language : English
Default : No
Forced : No





1 个附件 售价 大小 下载 时间

David.Bowie.Finding.Fame.2019.1080p.AMZN.WEBRip.DDP2.0.x264-NTG.torrent 0 金币 29.34K 511 次 1月前

#1楼
发帖时间:2019-08-09 16:26:27   |   回复数:3
liyouchai
隐世仙人♂
谢谢楼主分享资源
1月前 #2楼
tanchoohoon
武林盟主
感谢楼主的无私分享
1月前 #3楼
911degrees
隐世仙人♂
非常感谢,谢谢分享
1月前 #4楼
游客组