conanlcg
超级版主

[2011] [其他] [剧情] [BD-1080P] 双面罗密欧 Romeos.2011.GERMAN.1080p.BluRay.x264-HANDJOB 6.76GB

-->

帖子完整标题:双面罗密欧 Romeos.2011.GERMAN.1080p.BluRay.x264-HANDJOB 6.76GB


[img]https://img1.doubanio.com/view/photo/l_ratio_poster/public/p1551841029.jpg[img]

◎译  名 双面罗密欧
◎片  名 Romeos
◎年  代 2011
◎产  地 德国
◎类  别 剧情 / 同性
◎语  言 德语
◎上映日期 2011-12-08(德国)
◎IMDb评分 6.9/10 from 3033 users
◎IMDb链接 http://www.imdb.com/title/tt1830792
◎豆瓣评分 7.1/10 from 3200 users
◎豆瓣链接 https://movie.douban.com/subject/6116512/
◎片  长 94分钟
◎导  演 Sabine Bernardi
◎编  剧 Sabine Bernardi
◎主  演 里克·奥肯 Rick Okon
      麦斯米兰·贝佛特 Maximilian Befort
      Liv Lisa Fries
      Felix Brocke
      Silke Geertz
      Gilles Tschudi
      Sigrid Burkholder
      Johannes Schwab
      Tessa Lukat


◎标  签 德国 | 同志 | 变性 | 爱情 | 同性 | 青春 | 德国电影 | 2011

◎简  介

  该怎样去爱一个人,当你连自己是男是女都说不清?该怎样去爱自己,当你连自己的身体都难以确定?从小就认定自己该是男生的卢卡斯(里克·奥肯 Rick Okon 饰),决定在二十岁生日那天做变性手术。在一次狂欢派对上他遇见了狂野帅气的男同志法比欧(麦斯米兰·贝佛特 Maximi lian Befort 饰),两人迅速坠入情网。面对炙热难挡的同性吸引力,怀着身体构造的错乱秘密 ,这段真假罗密欧的倒错恋情又将如何找到属于自己的幸福结局?
  《双面罗密欧》以优异的得奖剧本呈现人物的自我认同。拥有女孩性徵却是男孩灵魂的主角,在变性手术前与另一男孩发展出一段倒错恋情,从各个角度看它都是一个荒谬大胆的故事,但也引导出关于身份认同的新观点,引领我们进入到同志电影的新境界 。导演萨宾·柏娜德“希望告诉观众,一个年轻人应如何勇敢的去过他要的生活,以及人们对快乐的追求与渴望”。
Video
ID : 3
Format : AVC
Format/Info : Advanced Video Codec
Format profile : [email protected]
Format settings : CABAC / 4 Ref Frames
Format settings, CABAC : Yes
Format settings, Reference frames : 4 frames
Codec ID : V_MPEG4/ISO/AVC
Duration : 1 h 33 min
Bit rate : 9 672 kb/s
Width : 1 920 pixels
Height : 1 080 pixels
Display aspect ratio : 16:9
Frame rate mode : Constant
Frame rate : 25.000 FPS
Color space : YUV
Chroma subsampling : 4:2:0
Bit depth : 8 bits
Scan type : Progressive
Bits/(Pixel*Frame) : 0.187
Stream size : 6.34 GiB (94%)
Writing library : x264 core 157 r2935 545de2f
Encoding settings : cabac=1 / ref=4 / deblock=1:-3:-3 / analyse=0x3:0x133 / me=umh / subme=10 / psy=1 / psy_rd=1.00:0.00 / mixed_ref=1 / me_range=32 / chroma_me=1 / trellis=2 / 8x8dct=1 / cqm=0 / deadzone=21,11 / fast_pskip=0 / chroma_qp_offset=-2 / threads=34 / lookahead_threads=8 / sliced_threads=0 / nr=0 / decimate=0 / interlaced=0 / bluray_compat=0 / constrained_intra=0 / bframes=16 / b_pyramid=2 / b_adapt=2 / b_bias=0 / direct=3 / weightb=1 / open_gop=0 / weightp=2 / keyint=250 / keyint_min=25 / scenecut=40 / intra_refresh=0 / rc_lookahead=60 / rc=crf / mbtree=0 / crf=21.2 / qcomp=0.60 / qpmin=0 / qpmax=69 / qpstep=4 / vbv_maxrate=62500 / vbv_bufsize=78125 / crf_max=0.0 / nal_hrd=none / filler=0 / ip_ratio=1.40 / pb_ratio=1.30 / aq=2:0.95
Default : Yes
Forced : No
Color range : Limited
Color primaries : BT.709
Transfer characteristics : BT.709
Matrix coefficients : BT.709

Audio
ID : 2
Format : AC-3
Format/Info : Audio Coding 3
Commercial name : Dolby Digital
Codec ID : A_AC3
Duration : 1 h 33 min
Bit rate mode : Constant
Bit rate : 640 kb/s
Channel(s) : 6 channels
Channel layout : L R C LFE Ls Rs
Sampling rate : 48.0 kHz
Frame rate : 31.250 FPS (1536 SPF)
Bit depth : 16 bits
Compression mode : Lossy
Stream size : 429 MiB (6%)
Language : German
Service kind : Complete Main
Default : Yes
Forced : No

Text
ID : 1
Format : UTF-8
Codec ID : S_TEXT/UTF8
Codec ID/Info : UTF-8 Plain Text
Duration : 1 h 23 min
Bit rate : 33 b/s
Count of elements : 625
Stream size : 20.4 KiB (0%)
Language : English
Default : Yes
Forced : No

Menu
00:00:00.000 : :Chapter 01
00:07:31.320 : :Chapter 02
00:16:04.360 : :Chapter 03
00:24:25.240 : :Chapter 04
00:33:42.680 : :Chapter 05
00:40:03.760 : :Chapter 06
00:47:16.479 : :Chapter 07
00:56:31.399 : :Chapter 08
01:02:34.600 : :Chapter 09
01:12:17.280 : :Chapter 10
01:17:10.280 : :Chapter 11
01:25:50.160 : :Chapter 12
01:33:38.760 : :Chapter 13





1 个附件 售价 大小 下载 时间

Romeos.2011.GERMAN.1080p.BluRay.x264-HANDJOB.torrent 0 金币 34.34K 539 次 1月前

#1楼
发帖时间:2019-08-10 06:48:49   |   回复数:5
blue23
隐世仙人♂
感谢楼主分享
1月前 #2楼
911degrees
隐世仙人♂
非常感谢,谢谢分享
1月前 #3楼
tanchoohoon
武林盟主
感谢楼主的无私分享
1月前 #4楼
liyouchai
隐世仙人♂
谢谢楼主分享资源
1月前 #5楼
kola13
一派掌门
感谢分享
1月前 #6楼
游客组