conanlcg
超级版主

[2008] [欧美] [剧情] [WEB-1080P] 贝比 Baby.2007.1080p.AMZN.WEBRip.DDP2.0.x264-BLUTONiUM 6.93GB

-->

帖子完整标题:贝比 Baby.2007.1080p.AMZN.WEBRip.DDP2.0.x264-BLUTONiUM 6.93GB




◎译  名 贝比
◎片  名 Baby
◎年  代 2008
◎产  地 美国
◎类  别 剧情 / 惊悚 / 犯罪
◎语  言 英语
◎上映日期 2008-12-30
◎IMDb评分 5.6/10 from 377 users
◎IMDb链接 http://www.imdb.com/title/tt0457286
◎豆瓣评分 6.4/10 from 76 users
◎豆瓣链接 https://movie.douban.com/subject/3271606/
◎导  演 Juwan Chung
◎主  演 David Huynh ... Baby
      Feodor Chin ... Benny
      Ron Yuan ... Tommy


◎标  签 我看过的电影 | 我看过的英语电影 | 英语电影 | 我的标签 | 英语标签 | 黑幫 | 青春 | 英语的标签

◎简  介

  故事发生在八十年代中期至到早期的九十年代。这部电影述说一个悲惨的故事。电影的背景采自在洛杉机的东北部。话说一群亚洲少年无所事事,过着流氓般的生活。犯罪,抢战等等都有。其中一名流氓,以黑头罩闻名。
  -------------------------------
  我只是对中文译名很好奇。。。。
Video
ID : 1
Format : AVC
Format/Info : Advanced Video Codec
Format profile : [email protected]
Format settings : CABAC / 4 Ref Frames
Format settings, CABAC : Yes
Format settings, Reference frames : 4 frames
Codec ID : V_MPEG4/ISO/AVC
Duration : 1 h 39 min
Bit rate mode : Constant
Bit rate : 10 000 kb/s
Width : 1 920 pixels
Height : 1 080 pixels
Display aspect ratio : 16:9
Frame rate mode : Constant
Frame rate : 23.976 (24000/1001) FPS
Color space : YUV
Chroma subsampling : 4:2:0
Bit depth : 8 bits
Scan type : Progressive
Bits/(Pixel*Frame) : 0.201
Stream size : 6.84 GiB (99%)
Default : Yes
Forced : No
Color range : Limited
Color primaries : BT.709
Transfer characteristics : BT.709
Matrix coefficients : BT.709

Audio
ID : 2
Format : AAC LC
Format/Info : Advanced Audio Codec Low Complexity
Codec ID : A_AAC-2
Duration : 1 h 39 min
Bit rate : 125 kb/s
Channel(s) : 2 channels
Channel layout : L R
Sampling rate : 48.0 kHz
Frame rate : 46.875 FPS (1024 SPF)
Compression mode : Lossy
Stream size : 89.6 MiB (1%)
Default : Yes
Forced : No

Text
ID : 3
Format : UTF-8
Codec ID : S_TEXT/UTF8
Codec ID/Info : UTF-8 Plain Text
Duration : 1 h 36 min
Bit rate : 46 b/s
Count of elements : 1168
Stream size : 32.4 KiB (0%)
Title : SDH
Language : English
Default : No
Forced : No





1 个附件 售价 大小 下载 时间

Baby.2007.1080p.AMZN.WEBRip.DDP2.0.x264-BLUTONiUM.torrent 0 金币 35.17K 196 次 1月前

#1楼
发帖时间:2019-08-14 13:29:47   |   回复数:3
911degrees
隐世仙人♂
非常感谢,谢谢分享
1月前 #2楼
tanchoohoon
武林盟主
感谢楼主的无私分享
1月前 #3楼
liyouchai
隐世仙人♂
谢谢楼主分享资源
1月前 #4楼
游客组