conanlcg
超级版主

[2019] [欧美] [恐怖] [WEB-1080P] 香蕉劈裂 The.Banana.Splits.Movie.2019.1080p.AMZN.WEBRip.DDP5.1.x264-NTG 6.28GB

-->

帖子完整标题:香蕉劈裂 The.Banana.Splits.Movie.2019.1080p.AMZN.WEBRip.DDP5.1.x264-NTG 6.28GB




◎译  名 香蕉劈裂
◎片  名 The Banana Splits
◎年  代 2019
◎产  地 美国
◎类  别 恐怖
◎语  言 英语
◎IMDb评分 5.6/10 from 25 users
◎IMDb链接 http://www.imdb.com/title/tt9831136
◎豆瓣评分 0/10 from 0 users
◎豆瓣链接 https://movie.douban.com/subject/33418724/
◎导  演 丹尼什卡·埃斯特哈奇 Danishka Esterhazy
◎编  剧 Jed Elinoff / Scott Thomas
◎主  演 Dani Kind
      Finlay Wojtak-Hissong
      Romeo Carere
      史蒂夫·隆德 Steve Lund
      Maria Nash
      莎拉·坎宁 Sara Canning
      塞莉纳·马丁 Celina Martin
      Kiroshan Naidoo
      Daniel Fox
      Lia Sachs
      Jenna Saras
      Lily Spangenberg
      Vash Singh


◎简  介

  暂无相关剧情介绍
Video
ID : 1
Format : AVC
Format/Info : Advanced Video Codec
Format profile : [email protected]
Format settings : CABAC / 4 Ref Frames
Format settings, CABAC : Yes
Format settings, Reference frames : 4 frames
Codec ID : V_MPEG4/ISO/AVC
Duration : 1 h 29 min
Bit rate mode : Constant
Bit rate : 9 409 kb/s
Nominal bit rate : 10 000 kb/s
Width : 1 920 pixels
Height : 1 080 pixels
Display aspect ratio : 16:9
Frame rate mode : Constant
Frame rate : 23.976 (24000/1001) FPS
Color space : YUV
Chroma subsampling : 4:2:0
Bit depth : 8 bits
Scan type : Progressive
Bits/(Pixel*Frame) : 0.189
Stream size : 5.88 GiB (94%)
Default : Yes
Forced : No
Color range : Limited
Color primaries : BT.709
Transfer characteristics : BT.709
Matrix coefficients : BT.709

Audio
ID : 2
Format : E-AC-3
Format/Info : Enhanced AC-3
Commercial name : Dolby Digital Plus
Codec ID : A_EAC3
Duration : 1 h 29 min
Bit rate mode : Constant
Bit rate : 640 kb/s
Channel(s) : 6 channels
Channel layout : L R C LFE Ls Rs
Sampling rate : 48.0 kHz
Frame rate : 31.250 FPS (1536 SPF)
Compression mode : Lossy
Stream size : 410 MiB (6%)
Language : English
Service kind : Complete Main
Default : Yes
Forced : No

Text #1
ID : 3
Format : UTF-8
Codec ID : S_TEXT/UTF8
Codec ID/Info : UTF-8 Plain Text
Duration : 1 h 26 min
Bit rate : 46 b/s
Count of elements : 1045
Stream size : 29.9 KiB (0%)
Language : English
Default : No
Forced : No

Text #2
ID : 4
Format : UTF-8
Codec ID : S_TEXT/UTF8
Codec ID/Info : UTF-8 Plain Text
Duration : 1 h 27 min
Bit rate : 53 b/s
Count of elements : 1309
Stream size : 34.2 KiB (0%)
Title : SDH
Language : English
Default : No
Forced : No





1 个附件 售价 大小 下载 时间

The.Banana.Splits.Movie.2019.1080p.AMZN.WEBRip.DDP5.1.x264-NTG.torrent 0 金币 31.97K 336 次 1月前

#1楼
发帖时间:2019-08-14 13:35:50   |   回复数:2
911degrees
隐世仙人♂
非常感谢,谢谢分享
1月前 #2楼
liyouchai
隐世仙人♂
谢谢楼主分享资源
1月前 #3楼
游客组