conanlcg
超级版主

[2018] [其他] [惊悚] [WEB-720P] 比夜更黑 Darker.Than.Night.2018.720p.AMZN.WEBRip.DDP5.1.x264-NTG 1.76GB

-->

帖子完整标题:比夜更黑 Darker.Than.Night.2018.720p.AMZN.WEBRip.DDP5.1.x264-NTG 1.76GB




◎译  名 比夜更黑
◎片  名 Darker Than Night
◎年  代 2018
◎产  地 加拿大
◎类  别 惊悚 / 恐怖
◎语  言 英语
◎上映日期 2018-10-28(加拿大)
◎IMDb评分 6.5/10 from 244 users
◎IMDb链接 http://www.imdb.com/title/tt5845440
◎豆瓣评分 0/10 from 0 users
◎豆瓣链接 https://movie.douban.com/subject/30266081/
◎导  演 Johnny Mitchell
◎主  演 碧·桑托斯 Bea Santos
      Atticus Mitchell
      埃里克·克诺德森 Erik Knudsen


◎标  签 WEB | 2017

◎简  介

  Sloan Carter is a young girl who has recently been blinded. Her father leaves for the weekend and her two best friends, returning home from University, keep her company. A protege of her father's, passing through town, also spends the night. The peaceful weekend is interrupted by a shadowy threat and the safe country getaway turns into a fight for survival.
Video
ID : 1
Format : AVC
Format/Info : Advanced Video Codec
Format profile : [email protected]
Format settings : CABAC / 4 Ref Frames
Format settings, CABAC : Yes
Format settings, Reference frames : 4 frames
Codec ID : V_MPEG4/ISO/AVC
Duration : 1 h 21 min
Bit rate mode : Constant
Bit rate : 2 436 kb/s
Nominal bit rate : 6 000 kb/s
Width : 1 280 pixels
Height : 720 pixels
Display aspect ratio : 16:9
Frame rate mode : Constant
Frame rate : 23.976 (24000/1001) FPS
Color space : YUV
Chroma subsampling : 4:2:0
Bit depth : 8 bits
Scan type : Progressive
Bits/(Pixel*Frame) : 0.110
Stream size : 1.39 GiB (79%)
Default : Yes
Forced : No
Color range : Limited
Color primaries : BT.709
Transfer characteristics : BT.709
Matrix coefficients : BT.709

Audio
ID : 2
Format : E-AC-3
Format/Info : Enhanced AC-3
Commercial name : Dolby Digital Plus
Codec ID : A_EAC3
Duration : 1 h 21 min
Bit rate mode : Constant
Bit rate : 640 kb/s
Channel(s) : 6 channels
Channel layout : L R C LFE Ls Rs
Sampling rate : 48.0 kHz
Frame rate : 31.250 FPS (1536 SPF)
Compression mode : Lossy
Stream size : 375 MiB (21%)
Language : English
Service kind : Complete Main
Default : Yes
Forced : No

Text #1
ID : 3
Format : UTF-8
Codec ID : S_TEXT/UTF8
Codec ID/Info : UTF-8 Plain Text
Duration : 1 h 15 min
Bit rate : 46 b/s
Count of elements : 1060
Stream size : 25.5 KiB (0%)
Language : English
Default : No
Forced : No

Text #2
ID : 4
Format : UTF-8
Codec ID : S_TEXT/UTF8
Codec ID/Info : UTF-8 Plain Text
Duration : 1 h 18 min
Bit rate : 47 b/s
Count of elements : 1190
Stream size : 27.7 KiB (0%)
Title : SDH
Language : English
Default : No
Forced : No





1 个附件 售价 大小 下载 时间

Darker.Than.Night.2018.720p.AMZN.WEBRip.DDP5.1.x264-NTG.torrent 0 金币 18.15K 175 次 9天前

#1楼
发帖时间:2019-08-14 13:42:08   |   回复数:2
911degrees
隐世仙人♂
非常感谢,谢谢分享
9天前 #2楼
liyouchai
隐世仙人♂
谢谢楼主分享资源
9天前 #3楼
游客组