conanlcg
超级版主

[更 早] [欧美] [剧情] [BD-1080P] 时光流逝 Where.The.Day.Takes.You.1992.1080p.BluRay.x264-HANDJOB 7.58GB

-->

帖子完整标题:时光流逝 Where.The.Day.Takes.You.1992.1080p.BluRay.x264-HANDJOB 7.58GB




◎译  名 时光流逝
◎片  名 Where the Day Takes You
◎年  代 1992
◎产  地 美国
◎类  别 剧情
◎语  言 英语
◎上映日期 1992-09-11
◎IMDb评分 6.7/10 from 2975 users
◎IMDb链接 http://www.imdb.com/title/tt0105810
◎豆瓣评分 0/10 from 0 users
◎豆瓣链接 https://movie.douban.com/subject/3008396/
◎片  长 105 分钟
◎导  演 Marc Rocco
◎编  剧 Michael Hitchcock / Marc Rocco
◎主  演 Laura San Giacomo
      Dermot Mulroney
      Robert Knepper
      Will Smith


◎标  签 WillSmith | 美国 | 威尔·史密斯 | 美國電影 | 社会 | 电影 | 爱情 | 时光流逝

◎简  介

  暂无相关剧情介绍
Video
ID : 1
Format : AVC
Format/Info : Advanced Video Codec
Format profile : [email protected]
Format settings : CABAC / 4 Ref Frames
Format settings, CABAC : Yes
Format settings, Reference frames : 4 frames
Codec ID : V_MPEG4/ISO/AVC
Duration : 1 h 43 min
Bit rate : 10.3 Mb/s
Width : 1 920 pixels
Height : 1 036 pixels
Display aspect ratio : 1.85:1
Frame rate mode : Constant
Frame rate : 23.976 (24000/1001) FPS
Color space : YUV
Chroma subsampling : 4:2:0
Bit depth : 8 bits
Scan type : Progressive
Bits/(Pixel*Frame) : 0.216
Stream size : 7.41 GiB (98%)
Writing library : x264 core 157 r2935 545de2f
Encoding settings : cabac=1 / ref=4 / deblock=1:-3:-3 / analyse=0x3:0x133 / me=umh / subme=10 / psy=1 / psy_rd=1.00:0.00 / mixed_ref=1 / me_range=32 / chroma_me=1 / trellis=2 / 8x8dct=1 / cqm=0 / deadzone=21,11 / fast_pskip=0 / chroma_qp_offset=-2 / threads=12 / lookahead_threads=3 / sliced_threads=0 / nr=0 / decimate=0 / interlaced=0 / bluray_compat=0 / constrained_intra=0 / bframes=16 / b_pyramid=2 / b_adapt=2 / b_bias=0 / direct=3 / weightb=1 / open_gop=0 / weightp=2 / keyint=240 / keyint_min=24 / scenecut=40 / intra_refresh=0 / rc_lookahead=60 / rc=crf / mbtree=0 / crf=22.0 / qcomp=0.60 / qpmin=0 / qpmax=69 / qpstep=4 / vbv_maxrate=62500 / vbv_bufsize=78125 / crf_max=0.0 / nal_hrd=none / filler=0 / ip_ratio=1.40 / pb_ratio=1.30 / aq=2:1.00
Default : Yes
Forced : No
Color range : Limited
Color primaries : BT.709
Transfer characteristics : BT.709
Matrix coefficients : BT.709

Audio
ID : 2
Format : AAC LC
Format/Info : Advanced Audio Codec Low Complexity
Codec ID : A_AAC-2
Duration : 1 h 43 min
Bit rate : 216 kb/s
Channel(s) : 2 channels
Channel layout : L R
Sampling rate : 48.0 kHz
Frame rate : 46.875 FPS (1024 SPF)
Compression mode : Lossy
Stream size : 159 MiB (2%)
Language : English
Default : Yes
Forced : No

Text #1
ID : 3
Format : UTF-8
Codec ID : S_TEXT/UTF8
Codec ID/Info : UTF-8 Plain Text
Duration : 1 h 41 min
Bit rate : 70 b/s
Count of elements : 1584
Stream size : 52.3 KiB (0%)
Language : English
Default : No
Forced : No

Text #2
ID : 4
Format : PGS
Muxing mode : zlib
Codec ID : S_HDMV/PGS
Codec ID/Info : Picture based subtitle format used on BDs/HD-DVDs
Duration : 1 h 42 min
Bit rate : 30.0 kb/s
Count of elements : 1864
Stream size : 22.1 MiB (0%)
Language : French
Default : No
Forced : No

Menu
00:00:00.000 : en:Chapter 01
00:10:00.600 : en:Chapter 02
00:20:01.200 : en:Chapter 03
00:30:01.800 : en:Chapter 04
00:40:02.400 : en:Chapter 05
00:50:03.000 : en:Chapter 06
01:00:03.600 : en:Chapter 07
01:10:04.200 : en:Chapter 08
01:20:04.800 : en:Chapter 09
01:30:05.400 : en:Chapter 10
01:38:38.204 : en:Chapter 11





1 个附件 售价 大小 下载 时间

Where.The.Day.Takes.You.1992.1080p.BluRay.x264-HANDJOB.torrent 0 金币 38.44K 252 次 9天前

#1楼
发帖时间:2019-08-14 14:31:49   |   回复数:3
blue23
隐世仙人♂
感谢楼主分享
9天前 #2楼
liyouchai
隐世仙人♂
谢谢楼主分享资源
8天前 #3楼
911degrees
隐世仙人♂
非常感谢,谢谢分享
8天前 #4楼
游客组