conanlcg
超级版主

[2015] [欧美] [WEB-720P] 千里之外 Between.The.Miles.2015.720p.AMZN.WEBRip.DDP2.0.x264-KAMIKAZE 3.88GB

-->

帖子完整标题:千里之外 Between.The.Miles.2015.720p.AMZN.WEBRip.DDP2.0.x264-KAMIKAZE 3.88GB




◎译  名 千里之外
◎片  名 Between the miles
◎年  代 2015
◎产  地 美国
◎语  言 英语
◎IMDb评分 7.3/10 from 35 users
◎IMDb链接 http://www.imdb.com/title/tt2322296
◎豆瓣评分 0/10 from 0 users
◎豆瓣链接 https://movie.douban.com/subject/30185667/
◎导  演 Michelle Opitz

◎简  介

  After taking three homeless teens off the streets of Los Angeles and into her care, Florence, a hapless musician, must overcome her own reckless tendencies in order to care for them.
Video
ID : 1
Format : AVC
Format/Info : Advanced Video Codec
Format profile : [email protected]
Format settings : CABAC / 4 Ref Frames
Format settings, CABAC : Yes
Format settings, Reference frames : 4 frames
Codec ID : V_MPEG4/ISO/AVC
Duration : 1 h 31 min
Bit rate mode : Constant
Bit rate : 6 000 kb/s
Width : 1 280 pixels
Height : 688 pixels
Display aspect ratio : 1.85:1
Frame rate mode : Constant
Frame rate : 29.970 (30000/1001) FPS
Color space : YUV
Chroma subsampling : 4:2:0
Bit depth : 8 bits
Scan type : Progressive
Bits/(Pixel*Frame) : 0.227
Stream size : 3.74 GiB (96%)
Language : English
Default : Yes
Forced : No
Color range : Limited
Color primaries : BT.709
Transfer characteristics : BT.709
Matrix coefficients : BT.709

Audio
ID : 2
Format : E-AC-3
Format/Info : Enhanced AC-3
Commercial name : Dolby Digital Plus
Codec ID : A_EAC3
Duration : 1 h 31 min
Bit rate mode : Constant
Bit rate : 224 kb/s
Channel(s) : 2 channels
Channel layout : L R
Sampling rate : 48.0 kHz
Frame rate : 31.250 FPS (1536 SPF)
Compression mode : Lossy
Stream size : 147 MiB (4%)
Language : English
Service kind : Complete Main
Default : Yes
Forced : No

Text
ID : 3
Format : UTF-8
Codec ID : S_TEXT/UTF8
Codec ID/Info : UTF-8 Plain Text
Duration : 1 h 30 min
Bit rate : 59 b/s
Count of elements : 1408
Stream size : 39.4 KiB (0%)
Title : English [CC](SDH)
Language : English
Default : Yes
Forced : No





1 个附件 售价 大小 下载 时间

Between.The.Miles.2015.720p.AMZN.WEBRip.DDP2.0.x264-KAMIKAZE.torrent 0 金币 39.37K 168 次 9天前

#1楼
发帖时间:2019-08-14 16:01:04   |   回复数:3
blue23
隐世仙人♂
感谢楼主分享
9天前 #2楼
liyouchai
隐世仙人♂
谢谢楼主分享资源
8天前 #3楼
911degrees
隐世仙人♂
非常感谢,谢谢分享
8天前 #4楼
游客组