conanlcg
超级版主

[2018] [欧美] [恐怖] [WEB-1080P] 邪灵女巫 Wicked.Witches.2018.1080p.WEB-DL.DD2.0.H264-FGT 2.54GB

-->

帖子完整标题:邪灵女巫 Wicked.Witches.2018.1080p.WEB-DL.DD2.0.H264-FGT 2.54GB




◎译  名 邪灵女巫 / Wicked.Witches
◎片  名 The Witches of Dumpling Farm
◎年  代 2018
◎产  地 英国
◎类  别 恐怖
◎语  言 英语
◎上映日期 2018-10-26(Freak Show Horror Film Festival)
◎IMDb评分 5.0/10 from 25 users
◎IMDb链接 http://www.imdb.com/title/tt8983294
◎豆瓣评分 0/10 from 0 users
◎豆瓣链接 https://movie.douban.com/subject/34468174/
◎导  演 Martin J Pickering
◎编  剧 Mark Pickering / Martin J Pickering
◎主  演 Duncan Casey
      Justin Marosa
      Kitt Proudfoot


◎标  签 恐怖 | 3M稀影基地论坛 | 3M稀影基地

◎简  介

  After being thrown out of his home by his wife for being promiscuous, Mark finds himself back at Dumpling Farm, a place of youthful memories and parties, but things aren't quite right. His old buddy Ian, who has never left the place, is possessed by a group demonic, flesh eating Witches. Using Ian and his farm, these beautiful Witches honey trap Mark and his friends to consume their souls.
Video
ID : 1
Format : AVC
Format/Info : Advanced Video Codec
Format profile : [email protected]
Format settings : CABAC / 5 Ref Frames
Format settings, CABAC : Yes
Format settings, Reference frames : 5 frames
Codec ID : V_MPEG4/ISO/AVC
Duration : 1 h 19 min
Bit rate : 4 388 kb/s
Width : 1 920 pixels
Height : 790 pixels
Display aspect ratio : 2.40:1
Frame rate mode : Constant
Frame rate : 25.000 FPS
Color space : YUV
Chroma subsampling : 4:2:0
Bit depth : 8 bits
Scan type : Progressive
Bits/(Pixel*Frame) : 0.116
Stream size : 2.43 GiB (96%)
Title : Wicked.Witches.2018.1080p.WEB-DL.DD2.0.H264-FGT
Language : English
Default : Yes
Forced : No
Color range : Limited
Color primaries : BT.709
Transfer characteristics : BT.709
Matrix coefficients : BT.709

Audio
ID : 2
Format : AC-3
Format/Info : Audio Coding 3
Commercial name : Dolby Digital
Codec ID : A_AC3
Duration : 1 h 19 min
Bit rate mode : Constant
Bit rate : 192 kb/s
Channel(s) : 2 channels
Channel layout : L R
Sampling rate : 48.0 kHz
Frame rate : 31.250 FPS (1536 SPF)
Bit depth : 16 bits
Compression mode : Lossy
Stream size : 109 MiB (4%)
Title : Wicked.Witches.2018.1080p.WEB-DL.DD2.0.H264-FGT
Language : English
Service kind : Complete Main
Default : Yes
Forced : No

Text
ID : 3
Format : UTF-8
Codec ID : S_TEXT/UTF8
Codec ID/Info : UTF-8 Plain Text
Duration : 1 h 19 min
Bit rate : 35 b/s
Count of elements : 624
Stream size : 20.7 KiB (0%)
Language : English
Default : Yes
Forced : No

Menu
00:00:00.000 : en:1
00:12:40.600 : en:2
00:23:26.360 : en:3
00:33:20.999 : en:4
00:46:25.479 : en:5
00:56:16.198 : en:6
01:06:31.558 : en:7
01:16:31.118 : en:8





1 个附件 售价 大小 下载 时间

Wicked.Witches.2018.1080p.WEB-DL.DD2.0.H264-FGT.torrent 0 金币 25.92K 371 次 9天前

#1楼
发帖时间:2019-08-14 16:02:56   |   回复数:3
blue23
隐世仙人♂
感谢楼主分享
9天前 #2楼
liyouchai
隐世仙人♂
谢谢楼主分享资源
8天前 #3楼
911degrees
隐世仙人♂
非常感谢,谢谢分享
8天前 #4楼
游客组