conanlcg
超级版主

[更 早] [日本] [喜剧] [BD-1080P] 金刚大战哥斯拉/金刚决战哥斯拉 King.Kong.Vs.Godzilla.1963.1080p.BluRay.x264.3000th.Release-WaLM

-->

帖子完整标题:金刚大战哥斯拉/金刚决战哥斯拉 King.Kong.Vs.Godzilla.1963.1080p.BluRay.x264.3000th.Release-WaLMaRT 6.56GB




◎译  名 金刚大战哥斯拉 / 金刚决战哥斯拉 / 金刚对哥斯拉 / 金刚斗恐龙
◎片  名 キングコング対ゴジラ
◎年  代 1962
◎产  地 日本
◎类  别 喜剧 / 动作 / 科幻 / 恐怖 / 冒险
◎语  言 日语
◎上映日期 1962-08-11(日本)
◎IMDb评分 5.9/10 from 7252 users
◎IMDb链接 http://www.imdb.com/title/tt0056142
◎豆瓣评分 6.1/10 from 375 users
◎豆瓣链接 https://movie.douban.com/subject/1463226/
◎片  长 97分钟
◎导  演 本多猪四郎 Ishir? Honda
◎编  剧 関沢新一
◎主  演 高岛忠夫 Tadao Takashima
      佐原健二 Kenji Sahara
      藤木悠 Y? Fujiki
      有岛一郎 Ichir? Arishima
      田崎润 Jun Tazaki
      平田昭彦 Akihiko Hirata
      滨美枝 Mie Hama
      若林映子 Akiko Wakabayashi
      根岸明美 Akemi Negishi
      Senkichi ?mura
      堺左千夫 Sachio Sakai
      加藤春哉 Haruya Kato
      桐野洋雄 Nadao Kirino


◎标  签 日本 | 科幻 | 金刚大战哥斯拉 | 哥斯拉 | 日本电影 | 本多猪四郎 | 特摄 | 动作

◎简  介

  哥斯拉突然從北極的冰中出現!哥斯拉擊沉核潛艇海洋號,更破壞北極的軍事基地後開始南下。同樣的時候,在太平洋製藥宣傳部,那公司為提高節目的收看率打算使用發俄島上的魔神,櫻井和古江的兩名宣傳人員便去了發俄島。他們發現島上出現的魔神就是金剛。於是把他弄暈帶到日本,不久在運送金剛的船遭日本政府攔截,但那時金剛突然從麻醉中甦醒,在運輸船上跑出來,游向日本,而且更在那須高原初次與哥斯拉對決。第1回合以哥斯拉的放射火焰取得勝利,金剛被打敗嗎?
  同時自衛隊正進行「火焰攻擊大作戰」,把汽油倒入河中然後燃點著火,哥斯拉竟然沒有直接渡過河流。不過哥斯拉在高壓電流前竟不能突破,還被嚇走了。
  另一方面,逃走了的金剛面對阻擋哥斯拉的電塔竟輕易被他突破,而且在發瘋地吃著美味的電流,金剛終於到達市中心,更捉了櫻井的妹妹作為人質登上國會會議廳,自衛隊便利用法羅島體細胞莓汁展開「美味果汁迷迷糊糊大作戰」莓汁從天而降,在空中爆炸灑落在金剛身上,令金剛暈倒了。
  自衛隊防止金剛破壞城市,又展開「氣球輸送大作戰」,大氣球綁在金剛身上,帶著牠往富士地區,被運送到富士高原的金剛,與哥斯拉再次決鬥,哥斯拉再把金剛打倒,更放出放射火焰令森林著火。幸好有股雷暴經過,閃電擊中金剛,電流被吸進金剛身體中,令他醒來,變成超級撒亞人般。
  金剛再戰哥斯拉,金剛使出雷擊拳,雙手找著哥斯拉的尾巴,然後三百六十度一轉把哥斯拉拋到另一處再戰,把熱海城徹底破壞,最後2頭怪獸更滾下山跌入海中。不久在海上只看到金剛的身影,哥斯拉被打敗了。
  其實東寶為了不想得罪美國,在故事中,哥斯拉是被打敗,但為鞏固哥斯拉在日本
  怪獸王的地位,卻在官網寫成平手!哥斯拉和金剛共戰3場,富士山1敗,電塔1勝,熱海城1勝。
Video
ID : 1
Format : AVC
Format/Info : Advanced Video Codec
Format profile : [email protected]
Format settings : CABAC / 5 Ref Frames
Format settings, CABAC : Yes
Format settings, Reference frames : 5 frames
Codec ID : V_MPEG4/ISO/AVC
Duration : 1 h 30 min
Bit rate : 10.2 Mb/s
Width : 1 920 pixels
Height : 816 pixels
Display aspect ratio : 2.35:1
Frame rate mode : Constant
Frame rate : 23.976 (23976/1000) FPS
Color space : YUV
Chroma subsampling : 4:2:0
Bit depth : 8 bits
Scan type : Progressive
Bits/(Pixel*Frame) : 0.272
Stream size : 6.36 GiB (97%)
Writing library : x264 core 142 r2431 ac76440
Encoding settings : cabac=1 / ref=5 / deblock=1:0:0 / analyse=0x3:0x113 / me=umh / subme=8 / psy=1 / psy_rd=1.00:0.00 / mixed_ref=1 / me_range=16 / chroma_me=1 / trellis=1 / 8x8dct=1 / cqm=0 / deadzone=21,11 / fast_pskip=1 / chroma_qp_offset=-2 / threads=12 / lookahead_threads=2 / sliced_threads=0 / nr=0 / decimate=1 / interlaced=0 / bluray_compat=0 / constrained_intra=0 / bframes=3 / b_pyramid=2 / b_adapt=2 / b_bias=0 / direct=3 / weightb=1 / open_gop=0 / weightp=2 / keyint=250 / keyint_min=23 / scenecut=40 / intra_refresh=0 / rc_lookahead=50 / rc=2pass / mbtree=1 / bitrate=10236 / ratetol=1.0 / qcomp=0.60 / qpmin=0 / qpmax=69 / qpstep=4 / cplxblur=20.0 / qblur=0.5 / ip_ratio=1.40 / aq=1:1.00
Default : Yes
Forced : No

Audio
ID : 2
Format : AC-3
Format/Info : Audio Coding 3
Commercial name : Dolby Digital
Codec ID : A_AC3
Duration : 1 h 30 min
Bit rate mode : Constant
Bit rate : 96.0 kb/s
Channel(s) : 1 channel
Channel layout : C
Sampling rate : 48.0 kHz
Frame rate : 31.250 FPS (1536 SPF)
Bit depth : 16 bits
Compression mode : Lossy
Stream size : 62.4 MiB (1%)
Title : english
Language : English
Service kind : Complete Main
Default : Yes
Forced : No

Text
ID : 3
Format : UTF-8
Codec ID : S_TEXT/UTF8
Codec ID/Info : UTF-8 Plain Text
Title : english
Language : English
Default : No
Forced : No





1 个附件 售价 大小 下载 时间

King.Kong.Vs.Godzilla.1963.1080p.BluRay.x264.3000th.Release-WaLMaRT.torrent 0 金币 33.31K 749 次 1月前

#1楼
发帖时间:2019-08-14 16:29:18   |   回复数:4
blue23
隐世仙人♂
感谢楼主分享
1月前 #2楼
liyouchai
隐世仙人♂
谢谢楼主分享资源
1月前 #3楼
kola13
一派掌门
感谢分享
1月前 #4楼
911degrees
隐世仙人♂
非常感谢,谢谢分享
1月前 #5楼
游客组