conanlcg
超级版主

[更 早] [日本] [剧情] [BD-1080P] 哥斯拉·伊比拉·摩斯拉:南海大决斗/南海怪兽大决斗 Godzilla.Vs.The.Sea.Monster.1966.REPACK.1080p.BluRay.X

-->

帖子完整标题:哥斯拉·伊比拉·摩斯拉:南海大决斗/南海怪兽大决斗 Godzilla.Vs.The.Sea.Monster.1966.REPACK.1080p.BluRay.X264-WaLMaRT 6.55GB




◎译  名 哥斯拉·伊比拉·摩斯拉:南海大决斗 / 南海怪兽大决斗
◎片  名 ゴジラ?エビラ?モスラ 南海の大決闘
◎年  代 1966
◎产  地 日本
◎类  别 剧情 / 喜剧 / 动作 / 科幻 / 冒险
◎语  言 日语
◎上映日期 1966-12-17
◎IMDb评分 5.3/10 from 3698 users
◎IMDb链接 http://www.imdb.com/title/tt0060464
◎豆瓣评分 5.7/10 from 164 users
◎豆瓣链接 https://movie.douban.com/subject/2067462/
◎片  长 87 分钟
◎导  演 福田纯 Jun Fukuda
◎编  剧 関沢新一 / 斯波一絵
◎主  演 宝田明 Akira Takarada
      水野久美 Kumi Mizuno
      平田昭彦 Akihiko Hirata
      田崎润 Jun Tazaki
      砂塚秀夫 Hideo Sunazuka
      当银长太郎 Ch?tar? T?gin
      伊吹彻 T?ru Ibuki
      渡边彻
      天本英世 Eisei Amamoto
      沢村いき雄
      伊藤久哉 Hisaya Ito


◎标  签 哥斯拉 | 日本 | 科幻 | 特摄 | 电影 | 日本电影 | 伊比拉 | 魔斯拉

◎简  介

  良太开船去找男孩失踪的哥哥,遇到暴风雨漂流岛一座岛上,在那岛上发现了龙虾怪兽伊比拉,还有在岛上进行一项不为人知计划的神秘组织红竹,正巧碰到一位女原住民,通过她的帮助下四人潜入红竹的基地,竟发现哥斯拉在岛上的洞穴中休眠…….
Video
ID : 1
Format : AVC
Format/Info : Advanced Video Codec
Format profile : [email protected]
Format settings : CABAC / 5 Ref Frames
Format settings, CABAC : Yes
Format settings, Reference frames : 5 frames
Codec ID : V_MPEG4/ISO/AVC
Duration : 1 h 26 min
Bit rate : 9 888 kb/s
Width : 1 920 pixels
Height : 816 pixels
Display aspect ratio : 2.35:1
Frame rate mode : Constant
Frame rate : 23.976 (23976/1000) FPS
Color space : YUV
Chroma subsampling : 4:2:0
Bit depth : 8 bits
Scan type : Progressive
Bits/(Pixel*Frame) : 0.263
Stream size : 5.88 GiB (90%)
Writing library : x264 core 142 r2431 ac76440
Encoding settings : cabac=1 / ref=5 / deblock=1:0:0 / analyse=0x3:0x113 / me=umh / subme=8 / psy=1 / psy_rd=1.00:0.00 / mixed_ref=1 / me_range=16 / chroma_me=1 / trellis=1 / 8x8dct=1 / cqm=0 / deadzone=21,11 / fast_pskip=1 / chroma_qp_offset=-2 / threads=12 / lookahead_threads=2 / sliced_threads=0 / nr=0 / decimate=1 / interlaced=0 / bluray_compat=0 / constrained_intra=0 / bframes=3 / b_pyramid=2 / b_adapt=2 / b_bias=0 / direct=3 / weightb=1 / open_gop=0 / weightp=2 / keyint=250 / keyint_min=23 / scenecut=40 / intra_refresh=0 / rc_lookahead=50 / rc=2pass / mbtree=1 / bitrate=9888 / ratetol=1.0 / qcomp=0.60 / qpmin=0 / qpmax=69 / qpstep=4 / cplxblur=20.0 / qblur=0.5 / ip_ratio=1.40 / aq=1:1.00
Default : Yes
Forced : No

Audio #1
ID : 2
Format : AC-3
Format/Info : Audio Coding 3
Commercial name : Dolby Digital
Codec ID : A_AC3
Duration : 1 h 26 min
Bit rate mode : Constant
Bit rate : 448 kb/s
Channel(s) : 2 channels
Channel layout : L R
Sampling rate : 48.0 kHz
Frame rate : 31.250 FPS (1536 SPF)
Bit depth : 16 bits
Compression mode : Lossy
Stream size : 279 MiB (4%)
Title : English
Language : English
Service kind : Complete Main
Default : Yes
Forced : No

Audio #2
ID : 3
Format : AC-3
Format/Info : Audio Coding 3
Commercial name : Dolby Digital
Codec ID : A_AC3
Duration : 1 h 26 min
Bit rate mode : Constant
Bit rate : 448 kb/s
Channel(s) : 2 channels
Channel layout : L R
Sampling rate : 48.0 kHz
Frame rate : 31.250 FPS (1536 SPF)
Bit depth : 16 bits
Compression mode : Lossy
Stream size : 279 MiB (4%)
Title : Japanese
Language : Japanese
Service kind : Complete Main
Default : No
Forced : No

Text #1
ID : 4
Format : UTF-8
Codec ID : S_TEXT/UTF8
Codec ID/Info : UTF-8 Plain Text
Title : English Forced
Default : Yes
Forced : No

Text #2
ID : 5
Format : UTF-8
Codec ID : S_TEXT/UTF8
Codec ID/Info : UTF-8 Plain Text
Title : English
Default : No
Forced : No

Menu
00:00:00.000 : en:00:00:00.000
00:01:41.852 : en:00:01:41.852
00:12:15.693 : en:00:12:15.693
00:18:45.541 : en:00:18:45.541
00:20:22.263 : en:00:20:22.263
00:46:05.596 : en:00:46:05.596
00:51:38.721 : en:00:51:38.721
01:14:05.733 : en:01:14:05.733
01:21:47.611 : en:01:21:47.611
01:23:36.386 : en:01:23:36.386
01:26:18.673 : en:01:26:18.673





1 个附件 售价 大小 下载 时间

Godzilla.Vs.The.Sea.Monster.1966.REPACK.1080p.BluRay.X264-WaLMaRT.torrent 0 金币 33.27K 812 次 3月前

#1楼
发帖时间:2019-08-14 16:31:42   |   回复数:3
blue23
隐世仙人♂
感谢楼主分享
3月前 #2楼
liyouchai
隐世仙人♂
谢谢楼主分享资源
3月前 #3楼
911degrees
隐世仙人♂
非常感谢,谢谢分享
3月前 #4楼
游客组