conanlcg
超级版主

[更 早] [日本] [剧情] [BD-1080P] 哥斯拉大战机械哥斯拉 Godzilla.VS.Mechagodzilla.II.1993.1080p.BluRay.x264-SADPANDA 8.74GB

-->

帖子完整标题:哥斯拉大战机械哥斯拉 Godzilla.VS.Mechagodzilla.II.1993.1080p.BluRay.x264-SADPANDA 8.74GB




◎译  名 哥斯拉大战机械哥斯拉 / ゴジラvsメカゴジラ / 哥吉拉大战铁甲哥吉拉
◎片  名 ゴジラvsメカゴジラ
◎年  代 1993
◎产  地 日本
◎类  别 剧情 / 动作 / 科幻 / 恐怖
◎语  言 日语
◎上映日期 1993-12-11
◎IMDb评分 6.6/10 from 3825 users
◎IMDb链接 http://www.imdb.com/title/tt0107027
◎豆瓣评分 6.9/10 from 272 users
◎豆瓣链接 https://movie.douban.com/subject/2067455/
◎片  长 108 分钟
◎导  演 大河原孝夫
◎编  剧 三村渉
◎主  演 高嶋政宏
      佐野量子
      中山忍


◎标  签 日本 | 科幻 | 哥斯拉 | 日本电影 | 1993 | 电影 | 特摄 | 特撮

◎简  介

  1992年,日政府在关西的筑波建立国际哥斯拉对策中心。世界科技精英共聚一堂,合力研究一部G超武器—机械哥斯拉。以大前博士为首的考察团到达亚度诺亚岛时,发现了一只完整无缺的蛋。当团员把蛋带回京都时飞翼龙拿顿出现并攻击考察团一行人。这时哥斯拉亦在亚度诺亚岛出现,两只怪兽由海上战斗到陆上……

◎获奖情况

  第17届日本电影学院奖(1994)
  最佳录音(提名) 宫内一男
Video
ID : 5
Format : AVC
Format/Info : Advanced Video Codec
Format profile : [email protected]
Format settings : CABAC / 4 Ref Frames
Format settings, CABAC : Yes
Format settings, Reference frames : 4 frames
Codec ID : V_MPEG4/ISO/AVC
Duration : 1 h 47 min
Bit rate : 8 574 kb/s
Width : 1 920 pixels
Height : 1 040 pixels
Display aspect ratio : 1.85:1
Frame rate mode : Constant
Frame rate : 23.976 (24000/1001) FPS
Color space : YUV
Chroma subsampling : 4:2:0
Bit depth : 8 bits
Scan type : Progressive
Bits/(Pixel*Frame) : 0.179
Stream size : 6.29 GiB (72%)
Writing library : x264 core 142 r2431 ac76440
Encoding settings : cabac=1 / ref=4 / deblock=1:0:0 / analyse=0x3:0x133 / me=umh / subme=8 / psy=1 / psy_rd=1.00:0.00 / mixed_ref=1 / me_range=16 / chroma_me=1 / trellis=1 / 8x8dct=1 / cqm=0 / deadzone=21,11 / fast_pskip=0 / chroma_qp_offset=-2 / threads=18 / lookahead_threads=3 / sliced_threads=0 / nr=0 / decimate=1 / interlaced=0 / bluray_compat=0 / constrained_intra=0 / bframes=3 / b_pyramid=2 / b_adapt=1 / b_bias=0 / direct=1 / weightb=1 / open_gop=0 / weightp=2 / keyint=250 / keyint_min=23 / scenecut=40 / intra_refresh=0 / rc_lookahead=40 / rc=2pass / mbtree=1 / bitrate=8574 / ratetol=1.0 / qcomp=0.60 / qpmin=0 / qpmax=69 / qpstep=4 / cplxblur=20.0 / qblur=0.5 / ip_ratio=1.40 / aq=1:1.00
Language : English
Default : Yes
Forced : No

Audio #1
ID : 1
Format : DTS
Format/Info : Digital Theater Systems
Codec ID : A_DTS
Duration : 1 h 47 min
Bit rate mode : Constant
Bit rate : 1 509 kb/s
Channel(s) : 6 channels
Channel layout : C L R Ls Rs LFE
Sampling rate : 48.0 kHz
Frame rate : 93.750 FPS (512 SPF)
Bit depth : 24 bits
Compression mode : Lossy
Stream size : 1.14 GiB (13%)
Title : Japanese
Language : Japanese
Default : No
Forced : No

Audio #2
ID : 2
Format : DTS
Format/Info : Digital Theater Systems
Codec ID : A_DTS
Duration : 1 h 47 min
Bit rate mode : Constant
Bit rate : 1 509 kb/s
Channel(s) : 2 channels
Channel layout : Lt Rt
Sampling rate : 48.0 kHz
Frame rate : 93.750 FPS (512 SPF)
Bit depth : 24 bits
Compression mode : Lossy
Stream size : 1.14 GiB (13%)
Title : English
Language : English
Default : Yes
Forced : No

Text #1
ID : 3
Format : UTF-8
Codec ID : S_TEXT/UTF8
Codec ID/Info : UTF-8 Plain Text
Title : English
Language : English
Default : No
Forced : No

Text #2
ID : 4
Format : UTF-8
Codec ID : S_TEXT/UTF8
Codec ID/Info : UTF-8 Plain Text
Title : English Forced
Language : English
Default : Yes
Forced : No





1 个附件 售价 大小 下载 时间

Godzilla.VS.Mechagodzilla.II.1993.1080p.BluRay.x264-SADPANDA.torrent 0 金币 44.25K 840 次 1月前

#1楼
发帖时间:2019-08-14 16:33:18   |   回复数:4
blue23
隐世仙人♂
感谢楼主分享
1月前 #2楼
liyouchai
隐世仙人♂
谢谢楼主分享资源
1月前 #3楼
kola13
一派掌门
感谢分享
1月前 #4楼
911degrees
隐世仙人♂
非常感谢,谢谢分享
1月前 #5楼
游客组