conanlcg
超级版主

[更 早] [欧美] [剧情] [WEB-720P] 神偷淑女情/用爱将心偷 Thief.Of.Hearts.1984.720p.AMZN.WEBRip.DDP5.1.x264-ABM 4.48GB

-->

帖子完整标题:神偷淑女情/用爱将心偷 Thief.Of.Hearts.1984.720p.AMZN.WEBRip.DDP5.1.x264-ABM 4.48GB




◎译  名 神偷淑女情 / 用爱将心偷
◎片  名 Thief of Hearts
◎年  代 1984
◎产  地 美国
◎类  别 剧情 / 惊悚 / 犯罪
◎语  言 英语
◎上映日期 1984-10-19
◎IMDb评分 5.8/10 from 1476 users
◎IMDb链接 http://www.imdb.com/title/tt0088256
◎豆瓣评分 0/10 from 0 users
◎豆瓣链接 https://movie.douban.com/subject/1302956/
◎片  长 100 分钟
◎导  演 Douglas Day Stewart
◎编  剧 Douglas Day Stewart
◎主  演 斯蒂文·鲍尔 Steven Bauer
      克斯汀·埃伯索尔 Christine Ebersole
      大卫·卡罗素 David Caruso


◎标  签 美国电影 | 我想看!!! | 美国 | 我的电影5 | Drama | 1984 | 郑虹 | 贼

◎简  介

  这是一部探讨女性性幻想心理的浪漫文艺爱情片。剧情讲述史蒂文.鲍尔饰演的史考特外表英俊潇洒,风流倜傥,却是一个极为重视享受生活的惯贼。他在一次行窃中窃得芭芭拉.威廉斯扮演的米姬的日记,于是他按照日记中描述的那样,以米姬梦中情人的打扮出现在米姬的世界里,成为一个既偷物又偷心的大盗。该片情节安排相当巧妙,在亮丽映象的包装下,让观众达到视听等感观上的极为满意的效果。
Video
ID : 1
Format : AVC
Format/Info : Advanced Video Codec
Format profile : [email protected]
Format settings : CABAC / 4 Ref Frames
Format settings, CABAC : Yes
Format settings, Reference frames : 4 frames
Codec ID : V_MPEG4/ISO/AVC
Duration : 1 h 39 min
Bit rate mode : Constant
Bit rate : 5 658 kb/s
Nominal bit rate : 6 000 kb/s
Width : 1 280 pixels
Height : 720 pixels
Display aspect ratio : 16:9
Frame rate mode : Constant
Frame rate : 23.976 (24000/1001) FPS
Color space : YUV
Chroma subsampling : 4:2:0
Bit depth : 8 bits
Scan type : Progressive
Bits/(Pixel*Frame) : 0.256
Stream size : 3.94 GiB (88%)
Language : English
Default : Yes
Forced : No
Color range : Limited
Color primaries : BT.709
Transfer characteristics : BT.709
Matrix coefficients : BT.709

Audio
ID : 2
Format : E-AC-3
Format/Info : Enhanced AC-3
Commercial name : Dolby Digital Plus
Codec ID : A_EAC3
Duration : 1 h 39 min
Bit rate mode : Constant
Bit rate : 640 kb/s
Channel(s) : 6 channels
Channel layout : L R C LFE Ls Rs
Sampling rate : 48.0 kHz
Frame rate : 31.250 FPS (1536 SPF)
Compression mode : Lossy
Stream size : 457 MiB (10%)
Language : English
Service kind : Complete Main
Default : Yes
Forced : No

Text
ID : 3
Format : UTF-8
Codec ID : S_TEXT/UTF8
Codec ID/Info : UTF-8 Plain Text
Language : English
Default : No
Forced : No





1 个附件 售价 大小 下载 时间

Thief.Of.Hearts.1984.720p.AMZN.WEBRip.DDP5.1.x264-ABM.torrent 0 金币 45.31K 490 次 9天前

#1楼
发帖时间:2019-08-14 17:28:30   |   回复数:3
blue23
隐世仙人♂
感谢楼主分享
9天前 #2楼
liyouchai
隐世仙人♂
谢谢楼主分享资源
9天前 #3楼
911degrees
隐世仙人♂
非常感谢,谢谢分享
8天前 #4楼
游客组