conanlcg
超级版主

[2012] [欧美] [其他] [WEB-1080P] 我的鬼哭神嚎/我的阴宅 My.Amityville.Horror.2012.1080p.AMZN.WEBRip.DDP2.0.x264-TEPES 5.10GB

-->

帖子完整标题:我的鬼哭神嚎/我的阴宅 My.Amityville.Horror.2012.1080p.AMZN.WEBRip.DDP2.0.x264-TEPES 5.10GB




◎译  名 我的鬼哭神嚎 / 我的阴宅
◎片  名 My Amityville Horror
◎年  代 2012
◎产  地 美国
◎类  别 纪录片
◎语  言 英语
◎IMDb评分 5.5/10 from 1708 users
◎IMDb链接 http://www.imdb.com/title/tt1727523
◎豆瓣评分 0/10 from 0 users
◎豆瓣链接 https://movie.douban.com/subject/19896416/
◎导  演 Eric Walter
◎主  演 Daniel Lutz
      Laura DiDio
      Lorraine Warren


◎标  签 纪录片 | 恐怖 | 美国 | 惊悚 | 2012 | 美国电影 | 纪录 | 电影

◎简  介

  On November 13, 1974, the house at 112 Ocean Avenue in Amityville, New York became a place that locals feared when 23-year-old Ronald DeFeo murdered his entire family under very mysterious circumstances. In September 1977, it became a place the entire world feared when Jay Anson’s book “The Amityville Horror” was published (later adapted into the popular series of films), bringing the house international notoriety and instant entry into the occult history books. Not so much because of the DeFeo murders, but because it told the tale of what happened to the next family who lived there, one year after the massacre. The Lutz family.
  In 1975, they were dwellers for all of 28 days before fleeing in mortal terror, the victims of widespread supernatural happenings that pushed them to the brink of madness and had them fearing for their lives. A media circus began that never fully ended. Straight up to their recent deaths, George and Kathy Lutz have never gone back on a single claim. Daniel Lutz was ten years old at the time that his family literally went to hell. Never before in the 35 years since living through the ordeals has he gone on record about his experiences. This is his story, in his words.
Video
ID : 1
Format : AVC
Format/Info : Advanced Video Codec
Format profile : [email protected]
Format settings : CABAC / 4 Ref Frames
Format settings, CABAC : Yes
Format settings, Reference frames : 4 frames
Codec ID : V_MPEG4/ISO/AVC
Duration : 1 h 28 min
Bit rate mode : Constant
Bit rate : 7 988 kb/s
Nominal bit rate : 10 000 kb/s
Width : 1 920 pixels
Height : 1 080 pixels
Display aspect ratio : 16:9
Frame rate mode : Constant
Frame rate : 23.976 (24000/1001) FPS
Color space : YUV
Chroma subsampling : 4:2:0
Bit depth : 8 bits
Scan type : Progressive
Bits/(Pixel*Frame) : 0.161
Stream size : 4.96 GiB (97%)
Default : Yes
Forced : No
Color range : Limited
Color primaries : BT.709
Transfer characteristics : BT.709
Matrix coefficients : BT.709

Audio
ID : 2
Format : E-AC-3
Format/Info : Enhanced AC-3
Commercial name : Dolby Digital Plus
Codec ID : A_EAC3
Duration : 1 h 28 min
Bit rate mode : Constant
Bit rate : 224 kb/s
Channel(s) : 2 channels
Channel layout : L R
Sampling rate : 48.0 kHz
Frame rate : 31.250 FPS (1536 SPF)
Compression mode : Lossy
Stream size : 142 MiB (3%)
Language : English
Service kind : Complete Main
Default : Yes
Forced : No

Text
ID : 3
Format : UTF-8
Codec ID : S_TEXT/UTF8
Codec ID/Info : UTF-8 Plain Text
Duration : 1 h 28 min
Bit rate : 99 b/s
Count of elements : 2639
Stream size : 64.7 KiB (0%)
Title : English [CC](SDH)
Language : English
Default : Yes
Forced : No





1 个附件 售价 大小 下载 时间

My.Amityville.Horror.2012.1080p.AMZN.WEBRip.DDP2.0.x264-TEPES.torrent 0 金币 26.03K 273 次 2月前

#1楼
发帖时间:2019-08-14 17:36:46   |   回复数:3
blue23
隐世仙人♂
感谢楼主分享
2月前 #2楼
liyouchai
隐世仙人♂
谢谢楼主分享资源
2月前 #3楼
911degrees
隐世仙人♂
非常感谢,谢谢分享
2月前 #4楼
游客组