conanlcg
超级版主

[2018] [欧美] [剧情] [WEB-1080P] 牧师/牧師的秘密行動 The.Padre.2018.1080p.AMZN.WEBRip.DDP5.1.x264-monkee 5.46GB

-->

帖子完整标题:牧师/牧師的秘密行動 The.Padre.2018.1080p.AMZN.WEBRip.DDP5.1.x264-monkee 5.46GB




◎译  名 牧师 / 牧師的秘密行動(台)
◎片  名 The Padre
◎年  代 2018
◎产  地 美国
◎类  别 剧情
◎语  言 英语 / 西班牙语
◎上映日期 2018-08-28(美国)
◎IMDb评分 5.7/10 from 928 users
◎IMDb链接 http://www.imdb.com/title/tt6782276
◎豆瓣评分 5.9/10 from 269 users
◎豆瓣链接 https://movie.douban.com/subject/27002093/
◎导  演 乔纳森·索博尔 Jonathan Sobol
◎编  剧 Stephen Kunc
◎主  演 蒂姆·罗斯 Tim Roth
      尼克·诺特 Nick Nolte
      路易斯·古兹曼 Luis Guzmán


◎标  签 犯罪 | 美国 | 剧情 | 2018 | 蒂姆·罗斯 | 美国电影 | 电影 | 牧师

◎简  介

  蒂姆·罗斯、尼克·诺特和路易斯·古兹曼将出演新片[牧师](The Padre,暂译)。该片将由乔纳森·索博尔([偷盗艺术])执导。影片讲述蒂姆扮演的牧师在逃离警局抓捕时偷了一辆车,但却没有注意到后座躲藏的16岁女孩。于是女孩加入了他的旅程,他们计划了一场大型抢劫,却没有意识到其中危险。
Video
ID : 1
Format : AVC
Format/Info : Advanced Video Codec
Format profile : [email protected]
Format settings : CABAC / 4 Ref Frames
Format settings, CABAC : Yes
Format settings, Reference frames : 4 frames
Codec ID : V_MPEG4/ISO/AVC
Duration : 1 h 35 min
Bit rate mode : Constant
Bit rate : 7 583 kb/s
Nominal bit rate : 10 000 kb/s
Width : 1 920 pixels
Height : 816 pixels
Display aspect ratio : 2.35:1
Frame rate mode : Constant
Frame rate : 23.976 (24000/1001) FPS
Color space : YUV
Chroma subsampling : 4:2:0
Bit depth : 8 bits
Scan type : Progressive
Bits/(Pixel*Frame) : 0.202
Stream size : 5.04 GiB (92%)
Default : Yes
Forced : No
Color range : Limited
Color primaries : BT.709
Transfer characteristics : BT.709
Matrix coefficients : BT.709

Audio
ID : 2
Format : E-AC-3
Format/Info : Enhanced AC-3
Commercial name : Dolby Digital Plus
Codec ID : A_EAC3
Duration : 1 h 35 min
Bit rate mode : Constant
Bit rate : 640 kb/s
Channel(s) : 6 channels
Channel layout : L R C LFE Ls Rs
Sampling rate : 48.0 kHz
Frame rate : 31.250 FPS (1536 SPF)
Compression mode : Lossy
Stream size : 435 MiB (8%)
Language : English
Service kind : Complete Main
Default : Yes
Forced : No

Text #1
ID : 3
Format : UTF-8
Codec ID : S_TEXT/UTF8
Codec ID/Info : UTF-8 Plain Text
Duration : 1 h 27 min
Bit rate : 36 b/s
Count of elements : 928
Stream size : 23.4 KiB (0%)
Language : English
Default : No
Forced : No

Text #2
ID : 4
Format : UTF-8
Codec ID : S_TEXT/UTF8
Codec ID/Info : UTF-8 Plain Text
Duration : 1 h 32 min
Bit rate : 40 b/s
Count of elements : 1154
Stream size : 27.8 KiB (0%)
Title : SDH
Language : English
Default : No
Forced : No





1 个附件 售价 大小 下载 时间

The.Padre.2018.1080p.AMZN.WEBRip.DDP5.1.x264-monkee.torrent 0 金币 27.85K 420 次 1月前

#1楼
发帖时间:2019-08-15 06:37:33   |   回复数:3
linyihuangwei
武林盟主
谢谢分享
1月前 #2楼
911degrees
隐世仙人♂
非常感谢,谢谢分享
1月前 #3楼
liyouchai
隐世仙人♂
谢谢楼主分享资源
1月前 #4楼
游客组