conanlcg
超级版主

[2018] [欧美] [喜剧] [WEB-1080P] 洛可的摩登生活:静电吸附 Rockos.Modern.Life.Static.Cling.2019.1080p.WEBRip.x264-RARBG 898.57

-->

帖子完整标题:洛可的摩登生活:静电吸附 Rockos.Modern.Life.Static.Cling.2019.1080p.WEBRip.x264-RARBG 898.57MB




◎译  名 洛可的摩登生活:静电吸附
◎片  名 Rocko's Modern Life: Static Cling
◎年  代 2018
◎产  地 美国
◎类  别 喜剧 / 动画 / 家庭
◎语  言 英语
◎IMDb评分 7.4/10 from 1377 users
◎IMDb链接 http://www.imdb.com/title/tt6172460
◎豆瓣评分 0/10 from 0 users
◎豆瓣链接 https://movie.douban.com/subject/27149798/
◎片  长 60分钟
◎导  演 Joe Murray / Cosmo Segurson
◎编  剧 Joe Murray / 莱恩·布卢姆 Len Blum
◎主  演 汤姆·肯尼 Tom Kenny
      史蒂夫·李特 Steve Little
      卡洛斯·阿拉斯拉奇 Carlos Alazraqui


◎标  签 Nickelodeon

◎简  介

  After being in space for many years, Rocko and his friends attempt to adjust to an even more modern life.
Video
ID : 1
Format : AVC
Format/Info : Advanced Video Codec
Format profile : [email protected]
Format settings : CABAC / 4 Ref Frames
Format settings, CABAC : Yes
Format settings, Reference frames : 4 frames
Codec ID : avc1
Codec ID/Info : Advanced Video Coding
Duration : 45 min 55 s
Bit rate : 2 500 kb/s
Width : 1 920 pixels
Height : 1 080 pixels
Display aspect ratio : 16:9
Frame rate mode : Constant
Frame rate : 23.976 (23976/1000) FPS
Color space : YUV
Chroma subsampling : 4:2:0
Bit depth : 8 bits
Scan type : Progressive
Bits/(Pixel*Frame) : 0.050
Stream size : 822 MiB (92%)
Writing library : x264 core 152 r2851M ba24899
Encoding settings : cabac=1 / ref=4 / deblock=1:-1:-1 / analyse=0x3:0x113 / me=umh / subme=9 / psy=1 / psy_rd=1.00:0.15 / mixed_ref=1 / me_range=24 / chroma_me=1 / trellis=2 / 8x8dct=1 / cqm=0 / deadzone=21,11 / fast_pskip=1 / chroma_qp_offset=-3 / threads=16 / lookahead_threads=4 / sliced_threads=0 / nr=0 / decimate=1 / interlaced=0 / bluray_compat=0 / constrained_intra=0 / bframes=3 / b_pyramid=2 / b_adapt=2 / b_bias=0 / direct=3 / weightb=1 / open_gop=0 / weightp=2 / keyint=250 / keyint_min=25 / scenecut=40 / intra_refresh=0 / rc_lookahead=50 / rc=2pass / mbtree=1 / bitrate=2500 / ratetol=1.0 / qcomp=0.60 / qpmin=0 / qpmax=69 / qpstep=4 / cplxblur=20.0 / qblur=0.5 / vbv_maxrate=31250 / vbv_bufsize=31250 / nal_hrd=none / filler=0 / ip_ratio=1.40 / aq=3:1.00
Encoded date : UTC 2019-08-16 11:28:00
Tagged date : UTC 2019-08-16 11:28:00
Codec configuration box : avcC

Audio
ID : 2
Format : AAC LC
Format/Info : Advanced Audio Codec Low Complexity
Codec ID : mp4a-40-2
Duration : 45 min 55 s
Duration_LastFrame : -11 ms
Bit rate mode : Constant
Bit rate : 224 kb/s
Channel(s) : 6 channels
Channel layout : C L R Ls Rs LFE
Sampling rate : 48.0 kHz
Frame rate : 46.875 FPS (1024 SPF)
Compression mode : Lossy
Stream size : 73.6 MiB (8%)
Language : English
Default : Yes
Alternate group : 1
Encoded date : UTC 2019-08-16 11:28:00
Tagged date : UTC 2019-08-16 11:28:00





1 个附件 售价 大小 下载 时间

Rockos.Modern.Life.Static.Cling.2019.1080p.WEBRip.x264-RARBG.torrent 0 金币 19.49K 133 次 1月前

#1楼
发帖时间:2019-08-17 09:41:45   |   回复数:2
liyouchai
隐世仙人♂
谢谢楼主分享资源
1月前 #2楼
911degrees
隐世仙人♂
非常感谢,谢谢分享
1月前 #3楼
游客组