conanlcg
超级版主

[2018] [欧美] [惊悚] [WEB-1080P] 夜幕猎人 Nomis.2018.1080p.WEB-DL.DD5.1.H264-FGT 3.42GB

-->

帖子完整标题:夜幕猎人 Nomis.2018.1080p.WEB-DL.DD5.1.H264-FGT 3.42GB




◎译  名 夜幕猎人 / Nomis / 诺米斯
◎片  名 Night Hunter
◎年  代 2018
◎产  地 美国
◎类  别 惊悚
◎语  言 英语
◎上映日期 2018-09-28(洛杉矶电影节) / 2019-09-06(美国)
◎IMDb评分 6.1/10 from 802 users
◎IMDb链接 http://www.imdb.com/title/tt6533240
◎豆瓣评分 0/10 from 0 users
◎豆瓣链接 https://movie.douban.com/subject/26972266/
◎片  长 98分钟
◎导  演 大卫·雷蒙德 David Raymond
◎编  剧 大卫·雷蒙德 David Raymond
◎主  演 本·金斯利 Ben Kingsley
      亨利·卡维尔 Henry Cavill
      亚历珊德拉·达达里奥 Alexandra Daddario
      斯坦利·图齐 Stanley Tucci
      内森·菲利安 Nathan Fillion
      敏卡·凯利 Minka Kelly
      布莱登·佛雷切 Brendan Fletcher
      伊莲娜·琼斯 Eliana Jones
      Mpho Koaho
      Kristen Harris
      Lorraine James


◎标  签 亨利·卡维尔 | 犯罪 | 惊悚 | 美国 | HenryCavill | 2018 | 电影 | 亚历珊德拉·达达里奥

◎简  介

  本·金斯利、亨利·卡维尔、亚历珊德拉·达达里奥加盟心理惊悚片[诺米斯](Nomis,暂译)。该片由大卫·雷蒙德自编自导,故事围绕一名美国警察追捕一名网上罪犯展开,随着案件的逐渐深入,一切都朝着无法控制的方向发展。2月底加拿大开机。
Video
ID : 1
Format : AVC
Format/Info : Advanced Video Codec
Format profile : [email protected]
Format settings : CABAC / 5 Ref Frames
Format settings, CABAC : Yes
Format settings, Reference frames : 5 frames
Codec ID : V_MPEG4/ISO/AVC
Duration : 1 h 38 min
Bit rate : 4 563 kb/s
Width : 1 920 pixels
Height : 804 pixels
Display aspect ratio : 2.40:1
Frame rate mode : Constant
Frame rate : 23.976 FPS
Color space : YUV
Chroma subsampling : 4:2:0
Bit depth : 8 bits
Scan type : Progressive
Bits/(Pixel*Frame) : 0.123
Stream size : 3.15 GiB (92%)
Title : Nomis.2018.1080p.WEB-DL.DD5.1.H264-FGT
Language : English
Default : Yes
Forced : No
Color range : Limited
Color primaries : BT.709
Transfer characteristics : BT.709
Matrix coefficients : BT.709

Audio
ID : 2
Format : AC-3
Format/Info : Audio Coding 3
Commercial name : Dolby Digital
Codec ID : A_AC3
Duration : 1 h 38 min
Bit rate mode : Constant
Bit rate : 384 kb/s
Channel(s) : 6 channels
Channel layout : L R C LFE Ls Rs
Sampling rate : 48.0 kHz
Frame rate : 31.250 FPS (1536 SPF)
Bit depth : 16 bits
Compression mode : Lossy
Stream size : 271 MiB (8%)
Title : Nomis.2018.1080p.WEB-DL.DD5.1.H264-FGT
Language : English
Service kind : Complete Main
Default : Yes
Forced : No

Menu
00:00:00.000 : en:1
00:07:47.634 : en:2
00:16:03.796 : en:3
00:25:38.162 : en:4
00:33:47.192 : en:5
00:43:34.237 : en:6
00:52:52.253 : en:7
01:01:22.095 : en:8
01:07:53.569 : en:9
01:16:04.850 : en:10
01:23:57.071 : en:11
01:31:25.685 : en:12





1 个附件 售价 大小 下载 时间

Nomis.2018.1080p.WEB-DL.DD5.1.H264-FGT.torrent 0 金币 34.66K 693 次 1月前

#1楼
发帖时间:2019-08-17 10:10:18   |   回复数:2
liyouchai
隐世仙人♂
谢谢楼主分享资源
1月前 #2楼
911degrees
隐世仙人♂
非常感谢,谢谢分享
1月前 #3楼
游客组