conanlcg
超级版主

[2019] [其他] [其他] [WEB-1080P] 冷眼杀人 Cold.Case.Hammarskjold.2019.1080p.AMZN.WEBRip.DDP5.1.x264-NTG 8.10GB

-->

帖子完整标题:冷眼杀人 Cold.Case.Hammarskjold.2019.1080p.AMZN.WEBRip.DDP5.1.x264-NTG 8.10GB




◎译  名 冷眼杀人
◎片  名 Cold Case Hammarskj?ld
◎年  代 2019
◎产  地 丹麦 / 瑞典 / 挪威 / 比利时
◎类  别 纪录片
◎语  言 英语 / 法语 / 瑞典语 / 本巴语 / 丹麦语
◎上映日期 2019-01-26(圣丹斯电影节)
◎IMDb评分 8.1/10 from 344 users
◎IMDb链接 http://www.imdb.com/title/tt9352780
◎豆瓣评分 0/10 from 0 users
◎豆瓣链接 https://movie.douban.com/subject/30390922/
◎片  长 120分钟
◎导  演 Mads Brügger
◎编  剧 Mads Brügger
◎主  演 Mads Brügger
      G?ran Bj?rkdahl
      Neddy Banda
      Jan Beuckels
      Hilding Bj?rkdahl
      Roger Bracco
      Robert Cedars
      Custon Chipoya
      Pierre Coppens
      Hans Corell


◎标  签 纪录片 | 丹麦 | 瑞典电影 | Sundance | 电影 | 2019 | 2010s | 影院

◎简  介

  Danish director Mads Brügger and Swedish private investigator G?ran Bj?rkdahl are trying to solve the mysterious death of Dag Hammarskj?ld. As their investigation closes in, they discover a crime far worse than killing the Secretary-General of the United Nations.

◎获奖情况

  第35届圣丹斯电影节(2019)
  评审团大奖 世界电影单元纪录片(提名) 马德·布吕格尔
  导演奖 世界电影单元纪录片 马德·布吕格尔
Video
ID : 1
Format : AVC
Format/Info : Advanced Video Codec
Format profile : [email protected]
Format settings : CABAC / 4 Ref Frames
Format settings, CABAC : Yes
Format settings, Reference frames : 4 frames
Codec ID : V_MPEG4/ISO/AVC
Duration : 2 h 4 min
Bit rate mode : Constant
Bit rate : 8 697 kb/s
Nominal bit rate : 10 000 kb/s
Width : 1 920 pixels
Height : 1 080 pixels
Display aspect ratio : 16:9
Frame rate mode : Constant
Frame rate : 23.976 (24000/1001) FPS
Color space : YUV
Chroma subsampling : 4:2:0
Bit depth : 8 bits
Scan type : Progressive
Bits/(Pixel*Frame) : 0.175
Stream size : 7.54 GiB (93%)
Default : Yes
Forced : No
Color range : Limited
Color primaries : BT.709
Transfer characteristics : BT.709
Matrix coefficients : BT.709

Audio
ID : 2
Format : E-AC-3
Format/Info : Enhanced AC-3
Commercial name : Dolby Digital Plus
Codec ID : A_EAC3
Duration : 2 h 4 min
Bit rate mode : Constant
Bit rate : 640 kb/s
Channel(s) : 6 channels
Channel layout : L R C LFE Ls Rs
Sampling rate : 48.0 kHz
Frame rate : 31.250 FPS (1536 SPF)
Compression mode : Lossy
Stream size : 568 MiB (7%)
Language : English
Service kind : Complete Main
Default : Yes
Forced : No

Text #1
ID : 3
Format : UTF-8
Codec ID : S_TEXT/UTF8
Codec ID/Info : UTF-8 Plain Text
Duration : 1 h 59 min
Bit rate : 89 b/s
Count of elements : 2215
Stream size : 78.6 KiB (0%)
Language : English
Default : No
Forced : No

Text #2
ID : 4
Format : UTF-8
Codec ID : S_TEXT/UTF8
Codec ID/Info : UTF-8 Plain Text
Duration : 2 h 1 min
Bit rate : 89 b/s
Count of elements : 2244
Stream size : 79.5 KiB (0%)
Title : SDH
Language : English
Default : No
Forced : No





1 个附件 售价 大小 下载 时间

Cold.Case.Hammarskjold.2019.1080p.AMZN.WEBRip.DDP5.1.x264-NTG.torrent 0 金币 41.03K 322 次 29天前

#1楼
发帖时间:2019-08-18 00:50:42   |   回复数:3
liyouchai
隐世仙人♂
谢谢楼主分享资源
29天前 #2楼
911degrees
隐世仙人♂
非常感谢,谢谢分享
29天前 #3楼
tanchoohoon
武林盟主
感谢楼主的无私分享
29天前 #4楼
游客组